Окаёмовы дни (Родион Овчинников) [2013, драма, DVB, AVC] Государственный Академический театр имени Евг. Вахтангова

Статистика раздачи
Размер:  787 MB   |   Зарегистрирован:  4 месяца 10 дней   |   .torrent скачан:  468 раз
Сиды:  2
Автор
Сообщение

Cheef mate

Стаж: 10 лет 10 месяцев

Сообщений: 2817

flag

Cheef mate · 02-Авг-18 13:29 (4 месяца 10 дней назад, ред. 02-Авг-18 13:31)

 

Окаёмовы дни
Название театра: Государственный Академический театр имени Евг. Вахтангова
Жанр: драма
Год выпуска: 2013
Продолжительность: 01:38:33
Режиссёр: Родион Овчинников
В ролях: Владимир Этуш, Мария Риваль, Анна Дубровская, Кирилл Рубцов, Ирина Дымченко, Вера Новикова
Описание: История взаимоотношений профессора Окаемова и его внучки Маши, идущих трудным путем взаимопонимания, рассказана автором подробно и эмоционально.
Образ старика – ученого, погруженного в науку, самодостаточного, заинтересовал народного артиста СССР В.А. Этуша и он выбрал эту историю для юбилейного спектакля к своему 90-летию. Владимир Абрамович не сразу принял это решение. Поиски материала были долгими и отнюдь не из-за отсутствия добротных пьес, но актер не находил в них ответа на вопросы, которые его сегодня волнуют. А у Афиногенова он увидел очень важную нравственную проблему.
Доп. информация: запись потока *.ts со спутника Intelsat-15 / Horizons 2, 85.2° в.д., ремукс в *.mkv программой VideoReDo.
Качество видео: DVB
Формат видео: MKV
Видео: Advanced Video Codec, 720(1024)x576 (4:3), 25,000 кадров/сек, 934 Кбит/сек
Аудио: MPEG Audio, 48,0 КГц, 192 Кбит/сек, 2 канала
MediaInfo
General
Unique ID : 11100464039651178514031128575382881050 (0x859DF21C5658496E735874CE317831A)
Complete name : D:\Torrent\ОКАЕМОВЫ ДНИ (Театр).mkv
Format : Matroska
Format version : Version 2
File size : 787 MiB
Duration : 1 h 38 min
Overall bit rate : 1 116 kb/s
Writing application : Lavf54.63.104
Writing library : Lavf54.63.104
Video
ID : 1
Format : AVC
Format/Info : Advanced Video Codec
Format profile : Main@L3
Format settings : CABAC / 3 Ref Frames
Format settings, CABAC : Yes
Format settings, ReFrames : 3 frames
Format settings, GOP : M=4, N=28
Codec ID : V_MPEG4/ISO/AVC
Duration : 1 h 38 min
Bit rate : 934 kb/s
Width : 720 pixels
Height : 576 pixels
Display aspect ratio : 16:9
Original display aspect rat : 16:9
Frame rate mode : Constant
Frame rate : 25.000 FPS
Standard : Component
Color space : YUV
Chroma subsampling : 4:2:0
Bit depth : 8 bits
Scan type : Interlaced
Scan type, store method : Separated fields
Scan order : Top Field First
Bits/(Pixel*Frame) : 0.090
Stream size : 659 MiB (84%)
Default : No
Forced : No
Color range : Limited
Color primaries : BT.601 PAL
Transfer characteristics : BT.470 System B/G
Matrix coefficients : BT.470 System B/G
Audio
ID : 2
Format : MPEG Audio
Format version : Version 1
Format profile : Layer 2
Codec ID : A_MPEG/L2
Codec ID/Hint : MP2
Duration : 1 h 38 min
Bit rate mode : Constant
Bit rate : 160 kb/s
Channel(s) : 2 channels
Sampling rate : 48.0 kHz
Compression mode : Lossy
Stream size : 113 MiB (14%)
Language : Russian
Default : Yes
Forced : No
Скриншот с названием постановки
Зарегистрирован:
  • 02-Авг-18 13:29
  • Скачан: 468 раз

Скачать .torrent

16 KB

Тип: обычная
Статус: проверено
Размер: 787 MB  ·  magnet8F3C337C415ABBE8101E4C3D2FDC21970E5DF745
  • Свернуть поддиректории
  • Развернуть
  • Переключить
  • Увел./умен. окно
загружается...
Раздаю до первых 5 сидов. Раздачи не поддерживаю. Пишите ЛС скачавшим. Ники пользователей под спойлером "Спасибо" кликабельны.
 
All rights reserved © 2017-2018
Loading...
Error