Бэтмен-ниндзя / Batman Ninja [Movie] [Без хардсаба] [RUS(int), ENG, JAP+SUB] [2018, экшн, боевые искусства, самураи, приключения, BDRemux] [1080p]

Статистика раздачи
Размер:  12.22 GB   |   Зарегистрирован:  3 месяца 30 дней   |   .torrent скачан:  385 раз
Сиды:  5
Автор
Сообщение

Bobropandavar

RG Мультфильмы

Стаж: 9 лет

Сообщений: 1907

flag

Bobropandavar · 07-Авг-18 12:58 (4 месяца 9 дней назад, ред. 17-Авг-18 14:17)

 


Бэтмен-ниндзя / Batman Ninja

Страна: Япония, США.
Жанр: экшн, боевые искусства, самураи, приключения.
Тип: Movie
Продолжительность: 85 мин.
Год выпуска: 2018.
Перевод: Русская многоголосая закадровая озвучка Flarrow Films
Глеб Петров
Dreamy Sleep
hAl
Lunar Arrow
Ron
Molli_bolli
Cpt Drusha.
Русские субтитры (UGN SUBZ Translators)
Режиссёр: Мидзусаки Дзюнпэй / Junpei Mizusaki.
Студия: Kamikaze Douga, Warner Bros. Japan
Роли озвучивали: Коити Ямадэра, Ватару Такаги, Риэ Кугимия, Аи Какума, Хотю Оцука, Такэхито Коясу, Тосиюки Морикава, Кэнта Миякэ, Юити Нагасима, Кэнго Каваниси.

Описание: Попав в поле действия машины времени, изобретенной Гориллой Гроддом, Бэтмен переносится в средневековую Японию. Там оказывается, что уже неплохо ояпонившиеся злодеи Готэма возглавляют отдельные княжества, и достигший определенного влияния Джокер наконец-то дождался прибытия своего главного врага. Но не все хотят смерти Брюса Уэйна — Женщина-кошка и верный слуга Альфред тоже с нетерпением ждали появления Бэтмена.


AniDB || World Art
СМОТРЕТЬ ОНЛАЙН
Отличия :
http://GOSTRACKER.XYZ/viewtopic.php?t=5553388 - BDRemux 1080p, наличие озвучки
http://GOSTRACKER.XYZ/viewtopic.php?t=5573927 - BDRemux 1080p, другая озвучка
http://GOSTRACKER.XYZ/viewtopic.php?t=5568869 - BDRemux 1080p, другая озвучка
Релиз:
Качество: BDRemux 1080p
Тип релиза: без хардсаба
Формат: MKV
Видео кодек: AVC
Аудио кодек: AC3, DTS MA
Видео: 1920x1080 / 14.9 Mb/s / 23.976 fps / 16:9 / High Profile 4.1 / 8 bits
Аудио 1: DTS-HD Master Audio / 5.1 / 48 kHz / 2124 kbps / 16-bit (DTS Core: 5.1 / 48 kHz / 1509 kbps / 16-bit) Flarrow Films (многоголосый закадровый)
Аудио 2: Dolby Digital Audio / 5.1 / 48 kHz / 640 kbps Japanese
Аудио 3: DTS-HD Master Audio / 5.1 / 48 kHz / 2830 kbps / 24-bit (DTS Core: 5.1 / 48 kHz / 1509 kbps / 24-bit) English
Субтитры: SRT, в составе контейнера: Русские (UGN SUBZ Translators), Japanese, English, English-SDH.
Навигация по главам: 9 глав (не именных)

Всё в составе одного контейнера.
MInfo
General
Unique ID : 70510878860004087034617770197600344291 (0x350BE6BB9B5E82AB3487EAD9047298E3)
Complete name : G:\Bobropandavar\Batman Ninja (2018) BDRemux 1080p Bobropandavar.mkv
Format : Matroska
Format version : Version 4 / Version 2
File size : 12.2 GiB
Duration : 1 h 25 min
Overall bit rate mode : Variable
Overall bit rate : 20.5 Mb/s
Encoded date : UTC 2018-08-17 08:36:05
Writing application : mkvmerge v25.0.0 ('Prog Noir') 64-bit
Writing library : libebml v1.3.6 + libmatroska v1.4.9
Cover : Yes
Attachments : cover.jpg / cover.jpg
Video
ID : 1
Format : AVC
Format/Info : Advanced Video Codec
Format profile : High@L4.1
Format settings : CABAC / 4 Ref Frames
Format settings, CABAC : Yes
Format settings, ReFrames : 4 frames
Codec ID : V_MPEG4/ISO/AVC
Duration : 1 h 25 min
Bit rate mode : Variable
Bit rate : 14.9 Mb/s
Maximum bit rate : 32.0 Mb/s
Width : 1 920 pixels
Height : 1 080 pixels
Display aspect ratio : 16:9
Frame rate mode : Constant
Frame rate : 23.976 (24000/1001) FPS
Color space : YUV
Chroma subsampling : 4:2:0
Bit depth : 8 bits
Scan type : Progressive
Bits/(Pixel*Frame) : 0.300
Stream size : 8.88 GiB (73%)
Title : Batman Ninja
Language : English
Default : Yes
Forced : No
Audio #1
ID : 2
Format : DTS
Format/Info : Digital Theater Systems
Format profile : MA / Core
Codec ID : A_DTS
Duration : 1 h 25 min
Bit rate mode : Variable / Constant
Bit rate : 2 124 kb/s / 1 509 kb/s
Channel(s) : 6 channels
Channel positions : Front: L C R, Side: L R, LFE
Sampling rate : 48.0 kHz
Frame rate : 93.750 FPS (512 SPF)
Bit depth : 16 bits
Compression mode : Lossless / Lossy
Stream size : 1.27 GiB (10%)
Title : Flarrow Films
Language : Russian
Default : Yes
Forced : No
Audio #2
ID : 3
Format : AC-3
Format/Info : Audio Coding 3
Commercial name : Dolby Digital
Codec ID : A_AC3
Duration : 1 h 25 min
Bit rate mode : Constant
Bit rate : 640 kb/s
Channel(s) : 6 channels
Channel positions : Front: L C R, Side: L R, LFE
Sampling rate : 48.0 kHz
Frame rate : 31.250 FPS (1536 SPF)
Bit depth : 16 bits
Compression mode : Lossy
Stream size : 390 MiB (3%)
Title : Japanese
Language : Japanese
Service kind : Complete Main
Default : No
Forced : No
Audio #3
ID : 4
Format : DTS
Format/Info : Digital Theater Systems
Format profile : MA / Core
Codec ID : A_DTS
Duration : 1 h 25 min
Bit rate mode : Variable / Constant
Bit rate : 2 830 kb/s / 1 509 kb/s
Channel(s) : 6 channels
Channel positions : Front: L C R, Side: L R, LFE
Sampling rate : 48.0 kHz
Frame rate : 93.750 FPS (512 SPF)
Bit depth : 24 bits
Compression mode : Lossless / Lossy
Stream size : 1.69 GiB (14%)
Title : English
Language : English
Default : No
Forced : No
Text #1
ID : 5
Format : UTF-8
Codec ID : S_TEXT/UTF8
Codec ID/Info : UTF-8 Plain Text
Duration : 1 h 22 min
Bit rate : 85 b/s
Count of elements : 882
Stream size : 51.4 KiB (0%)
Title : UGN SUBZ Translators
Language : Russian
Default : No
Forced : No
Text #2
ID : 6
Format : UTF-8
Codec ID : S_TEXT/UTF8
Codec ID/Info : UTF-8 Plain Text
Duration : 1 h 22 min
Bit rate : 41 b/s
Count of elements : 810
Stream size : 25.2 KiB (0%)
Title : Japanese
Language : Japanese
Default : No
Forced : No
Text #3
ID : 7
Format : UTF-8
Codec ID : S_TEXT/UTF8
Codec ID/Info : UTF-8 Plain Text
Duration : 1 h 24 min
Bit rate : 43 b/s
Count of elements : 879
Stream size : 26.7 KiB (0%)
Title : English
Language : English
Default : No
Forced : No
Text #4
ID : 8
Format : UTF-8
Codec ID : S_TEXT/UTF8
Codec ID/Info : UTF-8 Plain Text
Duration : 1 h 24 min
Bit rate : 51 b/s
Count of elements : 1159
Stream size : 32.1 KiB (0%)
Title : English-SDH
Language : English
Default : No
Forced : No
Menu
00:00:00.000 : en:Chapter 1
00:08:32.345 : en:Chapter 2
00:22:30.682 : en:Chapter 3
00:31:12.537 : en:Chapter 4
00:42:46.689 : en:Chapter 5
00:51:34.424 : en:Chapter 6
01:01:01.449 : en:Chapter 7
01:12:15.831 : en:Chapter 8
01:20:28.657 : en:Chapter 9
Скриншоты
Зарегистрирован:
  • 17-Авг-18 13:54
  • Скачан: 385 раз

Скачать .torrent

31 KB

Тип: обычная
Статус: T временная
Размер: 12.22 GB  ·  magnet5E982368C80A2A3CB7F7DFB287632507ADB8220E
  • Свернуть поддиректории
  • Развернуть
  • Переключить
  • Увел./умен. окно
загружается...

bot · 10-Авг-18 13:03 (спустя 3 дня)

Тема была перенесена из форума RG Мультфильмы (Оформление раздач) в форум Аниме (HD Video)
Bobropandavar
 

Igor8710

Стаж: 7 лет 11 месяцев

Сообщений: 40

flag

Igor8710 · 10-Авг-18 14:19 (спустя 3 дня, ред. 10-Авг-18 15:00)

К фильму есть прекрасный профессиональный перевод от студии HDRezka. Главного героя озвучил небезызвестный Валерий Соловьев, так же в работе участвовали другие именитые актеры.
Tвременная
Zabr

Zаbr

Помощник модератора

Стаж: 4 года 9 месяцев

Сообщений: 3092

flag

Zаbr · 14-Авг-18 23:18 (спустя 4 дня)

скрытый текст
Bobropandavar писал(а):
75776734Любительский (многоголосый закадровый) Flarrow Films
в аниме разделе упразднено деление на любителей и про, уберите (и в тех данных тоже)
Bobropandavar писал(а):
75776734(многоголосый закадровый) мужск + женск
2 человека? двухголосый, многоголосый от 4 и более
Bobropandavar писал(а):
75776734Видео: 1920x1080 , 14.9 Mb/s / 23.976 fps / 16:9 / High Profile 4.1
допишите битность
для субтитров допишите формат
Bobropandavar писал(а):
75776734Audio #1
...
Default : Yes
...
Text #1
...
Default : Yes
и вам нужно пересобрать релиз, поскольку у вас по умолчанию и русская озвучка, и полные субтитры
PS за озвучку анистара статус будет "сомнительно"
!не оформлено
Практически полностью отсутствую. Все будет как только, так сразу.


Finally done: Rewrite (Full), Fairy Tail (TV 2), Umaru (TV 2)
Hot ongoings: Gintama (TV 5), Souma (OVA)
Plan to do: Sister Princess (Full), Galaxy Angel (Full), Aria (Full), Bakuman (Full)
мои раздачи

Klim2068

Стаж: 7 лет 3 месяца

Сообщений: 19

flag

Klim2068 · 26-Сен-18 17:06 (спустя 1 месяц 11 дней)

Встаньте на раздачу. Пожалуйста!

Zombieller

Стаж: 6 лет 6 месяцев

Сообщений: 8

flag

Zombieller · 29-Ноя-18 19:16 (спустя 2 месяца 3 дня)

Под японскую дорожку сабы так и не сделали, печально(
 
All rights reserved © 2017-2018
Loading...
Error