(Melodic Hard Rock) [CD] W.E.T (Vocals - Jeff Scott Soto) - Earthrage - 2018, FLAC (image+.cue), lossless

Статистика раздачи
Размер:  330.4 MB   |   Зарегистрирован:  3 месяца 14 дней   |   .torrent скачан:  633 раза
Сиды:  9   Личи:  3
Автор
Сообщение

mart0372

Top Best

Стаж: 6 лет 9 месяцев

Сообщений: 16367

flag

mart0372 · 07-Авг-18 16:49 (3 месяца 14 дней назад, ред. 07-Авг-18 16:55)

 

W.E.T / Earthrage
Жанр: Melodic Hard Rock
Носитель: CD
Год издания: 2018
Издатель (лейбл): Frontiers Music
Номер по каталогу: FR CD 850
Страна исполнителя (группы): Sweden
Аудиокодек: FLAC (*.flac)
Тип рипа: image+.cue
Битрейт аудио: lossless
Продолжительность: 00:43:47
Источник (релизер): workutagin
Наличие сканов в содержимом раздачи: да
Треклист:
01. Watch the Fire (5:05)
02. Burn (4:17)
03. Kings on Thunder Road (4:25)
04. Elegantly Wasted (2:59)
05. Urgent (3:45)
06. Dangerous (3:14)
07. Calling out Your Name (4:02)
08. Heart is on the Line (4:28)
09. I Don't Wanna Play That Game (3:38)
10. The Burning Pain of Love (4:04)
11. The Never-ending Retraceable Dream (3:52)

Лог создания рипа
Exact Audio Copy V1.3 from 2. September 2016
Отчёт EAC об извлечении, выполненном 7. августа 2018, 15:11
W.E.T. / Earthrage
Дисковод: HL-DT-STDVDRAM GU40N Adapter: 0 ID: 1
Режим чтения : Достоверность
Использование точного потока : Да
Отключение кэша аудио : Да
Использование указателей C2 : Нет
Коррекция смещения при чтении : 103
Способность читать области Lead-in и Lead-out : Нет
Заполнение пропущенных сэмплов тишиной : Да
Удаление блоков с тишиной в начале и конце : Нет
При вычислениях CRC использовались нулевые сэмплы : Да
Интерфейс : Установленный внешний ASPI-интерфейс
Выходной формат : Пользовательский кодировщик
Выбранный битрейт : 1024 kBit/s
Качество : Высокий
Добавление ID3-тега : Нет
Утилита сжатия : C:\Program Files (x86)\Exact Audio Copy\Flac\flac.exe
Дополнительные параметры : -V -8 -T "Date=%year%" -T "Genre=%genre%" %source%
TOC извлечённого CD
Трек | Старт | Длительность | Начальный сектор | Конечный сектор
---------------------------------------------------------------------
1 | 0:00.00 | 5:04.31 | 0 | 22830
2 | 5:04.31 | 4:17.00 | 22831 | 42105
3 | 9:21.31 | 4:25.48 | 42106 | 62028
4 | 13:47.04 | 2:57.64 | 62029 | 75367
5 | 16:44.68 | 3:45.04 | 75368 | 92246
6 | 20:29.72 | 3:13.28 | 92247 | 106749
7 | 23:43.25 | 4:03.00 | 106750 | 124974
8 | 27:46.25 | 4:27.59 | 124975 | 145058
9 | 32:14.09 | 3:37.42 | 145059 | 161375
10 | 35:51.51 | 4:04.34 | 161376 | 179709
11 | 39:56.10 | 3:50.47 | 179710 | 197006
Характеристики диапазона извлечения и сообщения об ошибках
Выбранный диапазон
Имя файла C:\Users\workutagin\Desktop\W.E.T. - EARTHRAGE 2018\W.E.T. - Earthrage.wav
Пиковый уровень 96.6 %
Скорость извлечения 1.9 X
Качество диапазона 99.9 %
CRC теста 40799ECF
CRC копии 40799ECF
Копирование... OK
Ошибок не произошло
AccurateRip: сводка
Трек 1 : извлечено точно (доверие 9) [FE80B774] (AR v2)
Трек 2 : извлечено точно (доверие 9) [6EA1790D] (AR v2)
Трек 3 : извлечено точно (доверие 9) [F6301E09] (AR v2)
Трек 4 : извлечено точно (доверие 9) [8F5E2D61] (AR v2)
Трек 5 : извлечено точно (доверие 9) [0EE346D1] (AR v2)
Трек 6 : извлечено точно (доверие 9) [F29599D0] (AR v2)
Трек 7 : извлечено точно (доверие 9) [1786D164] (AR v2)
Трек 8 : извлечено точно (доверие 9) [6088F041] (AR v2)
Трек 9 : извлечено точно (доверие 9) [EC967105] (AR v2)
Трек 10 : извлечено точно (доверие 9) [980F1280] (AR v2)
Трек 11 : извлечено точно (доверие 9) [374A286B] (AR v2)
Все треки извлечены точно
Конец отчёта
---- CUETools DB Plugin V2.1.6
[CTDB TOCID: VfvGVevSAAlg7vSW5aW7GXsi3cQ-] found
Submit result: VfvGVevSAAlg7vSW5aW7GXsi3cQ- has been confirmed
Track | CTDB Status
1 | (33/33) Accurately ripped
2 | (33/33) Accurately ripped
3 | (33/33) Accurately ripped
4 | (33/33) Accurately ripped
5 | (33/33) Accurately ripped
6 | (33/33) Accurately ripped
7 | (33/33) Accurately ripped
8 | (33/33) Accurately ripped
9 | (33/33) Accurately ripped
10 | (33/33) Accurately ripped
11 | (33/33) Accurately ripped
==== Контрольная сумма отчёта 57C83C760D4AE589DC3179956EAE22EB7C219C7744A69E364404386C112860F9 ====

Зарегистрирован:
  • 07-Авг-18 16:49
  • Скачан: 633 раза

Скачать .torrent

14 KB

Тип: обычная
Статус: проверено
Размер: 330.4 MB  ·  magnet8240531D2CA4EB6C8EA0BC1797D4823E45483253
  • Свернуть поддиректории
  • Развернуть
  • Переключить
  • Увел./умен. окно
загружается...

inostra

Стаж: 9 лет 6 месяцев

Сообщений: 227

flag

inostra · 21-Авг-18 00:03 (спустя 13 дней)

Прошлые альбомы все в коллекции есть. Этот не впечатлил, но несколько вещей на плеер закинул.
Как подсказывает мне мой жизненный опыт - наши музыкальные вкусы не совпадают!
 
All rights reserved © 2017-2018
Loading...
Error