(Hard Rock) [CD] Blonz - Blonz [Japan, CSCS-5379, 1991] - 1990, FLAC (image+.cue), lossless

Статистика раздачи
Размер:  275.6 MB   |   Зарегистрирован:  3 месяца 9 дней   |   .torrent скачан:  231 раз
Сиды:  2   Личи:  1
Автор
Сообщение

ikebana

Стаж: 10 лет 2 месяца

Сообщений: 1369

flag

ikebana · 12-Авг-18 15:57 (3 месяца 9 дней назад, ред. 16-Авг-18 06:41)

 

Blonz - Blonz
Жанр: Hard Rock
Носитель: CD
Страна-производитель диска: Япония
Год издания: 1991
Издатель (лейбл): EPIC/CBS
Номер по каталогу: CSCS-5379
Страна исполнителя (группы): США
Аудиокодек: FLAC (*.flac)
Тип рипа: image+.cue
Битрейт аудио: lossless
Продолжительность: 39:43
Источник (релизер): Собственный рип
Наличие сканов в содержимом раздачи: да
Треклист:
1. Miracles (03:54)
2. Hands of Love (03:48)
3. It's the Same (03:46)
4. Trouble Child (04:19)
5. What's on Your Mind (03:35)
6. One and Only (04:27)
7. Rainbow (04:52)
8. Skintight (03:24)
9. Sexy Ride (03:35)
10. Last Call (for Alcohol) (03:58)
Лог создания рипа
Exact Audio Copy V1.0 beta 3 from 29. August 2011
Отчёт EAC об извлечении, выполненном 26. июня 2016, 19:33
Blonz / Blonz [CSCS-5379]
Дисковод: ASUS DRW-2014S1 Adapter: 1 ID: 0
Режим чтения : Достоверность
Использование точного потока : Да
Отключение кэша аудио : Да
Использование указателей C2 : Нет
Коррекция смещения при чтении : 6
Способность читать области Lead-in и Lead-out : Нет
Заполнение пропущенных сэмплов тишиной : Да
Удаление блоков с тишиной в начале и конце : Нет
При вычислениях CRC использовались нулевые сэмплы : Да
Интерфейс : Встроенный Win32-интерфейс для Win NT/2000
Выходной формат : Пользовательский кодировщик
Выбранный битрейт : 128 kBit/s
Качество : Высокий
Добавление ID3-тега : Нет
Утилита сжатия : C:\Program Files (x86)\Exact Audio Copy\Flac\flac.exe
Дополнительные параметры : -V -8 -T "Date=%year%" -T "Genre=%genre%" %source%
TOC извлечённого CD
Трек | Старт | Длительность | Начальный сектор | Конечный сектор
---------------------------------------------------------------------
1 | 0:00.00 | 3:54.57 | 0 | 17606
2 | 3:54.57 | 3:48.28 | 17607 | 34734
3 | 7:43.10 | 3:46.65 | 34735 | 51749
4 | 11:30.00 | 4:19.10 | 51750 | 71184
5 | 15:49.10 | 3:35.37 | 71185 | 87346
6 | 19:24.47 | 4:27.65 | 87347 | 107436
7 | 23:52.37 | 4:52.25 | 107437 | 129361
8 | 28:44.62 | 3:24.23 | 129362 | 144684
9 | 32:09.10 | 3:35.22 | 144685 | 160831
10 | 35:44.32 | 3:58.45 | 160832 | 178726
Характеристики диапазона извлечения и сообщения об ошибках
Выбранный диапазон
Имя файла Z:\Blonz\1990 Blonz\Blonz - Blonz [CSCS-5379].wav
Пиковый уровень 100.0 %
Скорость извлечения 7.7 X
Качество диапазона 100.0 %
CRC копии CBBCF2CE
Копирование... OK
Ошибок не произошло
AccurateRip: сводка
Трек 1 отсутствует в базе данных
Трек 2 отсутствует в базе данных
Трек 3 отсутствует в базе данных
Трек 4 отсутствует в базе данных
Трек 5 отсутствует в базе данных
Трек 6 отсутствует в базе данных
Трек 7 отсутствует в базе данных
Трек 8 отсутствует в базе данных
Трек 9 отсутствует в базе данных
Трек 10 отсутствует в базе данных
Ни одного трека нет в базе AccurateRip
Конец отчёта
==== Контрольная сумма отчёта 2C77FC0E981B932CD7408CDD7946406E9CBA3250828726C3E34B4E3B54FDEF7B ====
Зарегистрирован:
  • 12-Авг-18 15:57
  • Скачан: 231 раз

Скачать .torrent

11 KB

Тип: обычная
Статус: проверено
Размер: 275.6 MB  ·  magnet235F7CC892075B90D3ED0EFC973957D8FFC80345
  • Свернуть поддиректории
  • Развернуть
  • Переключить
  • Увел./умен. окно
загружается...

lobashova

Стаж: 10 лет

Сообщений: 6530

flag

lobashova · 13-Авг-18 11:19 (спустя 19 часов)

Producer - Phil Ehart, Steve Walsh Оба из Kansas. Спасибо.

Pretender

Стаж: 11 лет 10 месяцев

Сообщений: 1223


Pretender · 16-Авг-18 00:18 (спустя 2 дня 12 часов)

Диск 1991 года выпуска. D•2•21
 
All rights reserved © 2017-2018
Loading...
Error