(Melodic Hard Rock | AOR) [CD] Harlot - Room With A View (OCD 011) - 1989, FLAC (image+.cue), lossless

Статистика раздачи
Размер:  337.7 MB   |   Зарегистрирован:  3 месяца   |   .torrent скачан:  137 раз
Сиды:  2   Личи:  6
Автор
Сообщение

crossovernickk

Стаж: 8 лет 1 месяц

Сообщений: 2897

flag

crossovernickk · 17-Авг-18 19:46 (3 месяца назад, ред. 17-Авг-18 19:50)

 

Harlot / Room With A View (OCD 011)

Жанр: Melodic Hard Rock | AOR
Носитель: CD
Страна-производитель диска (релиза): Denmark
Год издания: 1989
Издатель (лейбл): Olafssongs
Номер по каталогу: OCD 011
Страна исполнителя (группы): Denmark
Аудиокодек: FLAC (*.flac)
Тип рипа: image+.cue
Битрейт аудио: lossless
Продолжительность: 43:30
Источник (релизер): alzal (спасибо !)
Наличие сканов в содержимом раздачи: да
Треклист:
01. Now I See (6:02)
02. So Much For Happy Endings (4:58)
03. Out All Night (4:20)
04. Spirits (5:20)
05. Invisible Ones (4:28)
06. Metropolis Children (4:22)
07. Dancing On Dynamite (4:37)
08. Bring Home Your Love (4:32)
09. Kecia (4:51)

Лог создания рипа
Exact Audio Copy V1.3 from 2. September 2016
Отчёт EAC об извлечении, выполненном 11. августа 2018, 21:49
Harlot / Room With A View (OCD 011)
Дисковод: PLEXTOR BD-R PX-B950SA Adapter: 1 ID: 0
Режим чтения : Достоверность
Использование точного потока : Да
Отключение кэша аудио : Да
Использование указателей C2 : Нет
Коррекция смещения при чтении : 6
Способность читать области Lead-in и Lead-out : Нет
Заполнение пропущенных сэмплов тишиной : Да
Удаление блоков с тишиной в начале и конце : Нет
При вычислениях CRC использовались нулевые сэмплы : Да
Интерфейс : Встроенный Win32-интерфейс для Win NT/2000
Выходной формат : Пользовательский кодировщик
Выбранный битрейт : 1024 kBit/s
Качество : Высокий
Добавление ID3-тега : Нет
Утилита сжатия : C:\Program Files (x86)\Exact Audio Copy\FLAC\FLAC.EXE
Дополнительные параметры : -6 -V -T "ARTIST=%artist%" -T "TITLE=%title%" -T "ALBUM=%albumtitle%" -T "DATE=%year%" -T "TRACKNUMBER=%tracknr%" -T "GENRE=%genre%" -T "COMMENT=%comment%" -T "BAND=%albuminterpret%" -T "ALBUMARTIST=%albuminterpret%" -T "COMPOSER=%composer%" %haslyrics%--tag-from-file=LYRICS="%lyricsfile%"%haslyrics% -T "DISCNUMBER=%cdnumber%" -T "TOTALDISCS=%totalcds%" -T "TOTALTRACKS=%numtracks%" %hascover%--picture="%coverfile%"%hascover% %source% -o %dest%
TOC извлечённого CD
Трек | Старт | Длительность | Начальный сектор | Конечный сектор
---------------------------------------------------------------------
1 | 0:00.00 | 6:02.00 | 0 | 27149
2 | 6:02.00 | 4:57.45 | 27150 | 49469
3 | 10:59.45 | 4:20.30 | 49470 | 68999
4 | 15:20.00 | 5:20.37 | 69000 | 93036
5 | 20:40.37 | 4:27.68 | 93037 | 113129
6 | 25:08.30 | 4:21.45 | 113130 | 132749
7 | 29:30.00 | 4:37.00 | 132750 | 153524
8 | 34:07.00 | 4:32.07 | 153525 | 173931
9 | 38:39.07 | 4:50.45 | 173932 | 195726
Характеристики диапазона извлечения и сообщения об ошибках
Выбранный диапазон
Имя файла G:\RIP\Harlot 1989 FLAC by alzal\Harlot - Room With A View (OCD 011).wav
Пиковый уровень 99.8 %
Скорость извлечения 0.8 X
Качество диапазона 99.6 %
CRC теста 8C7E1AC6
CRC копии 8C7E1AC6
Копирование... OK
Ошибок не произошло
AccurateRip: сводка
Трек 1 : извлечено точно (доверие 2) [F4650F97] (AR v2)
Трек 2 : извлечено точно (доверие 2) [5F25415B] (AR v2)
Трек 3 : извлечено точно (доверие 2) [BF40222A] (AR v2)
Трек 4 : извлечено точно (доверие 2) [6E3A0454] (AR v2)
Трек 5 : извлечено точно (доверие 2) [60D7DACF] (AR v2)
Трек 6 : извлечено точно (доверие 2) [53223CC1] (AR v2)
Трек 7 : извлечено точно (доверие 2) [6E29D51A] (AR v2)
Трек 8 : извлечено точно (доверие 2) [5185C4A6] (AR v2)
Трек 9 : извлечено точно (доверие 2) [B1580F02] (AR v2)
Все треки извлечены точно
Конец отчёта
---- CUETools DB Plugin V2.1.6
[CTDB TOCID: UWo3Bj7sVMY_ax3QuuINweCljDE-] found
Submit result: UWo3Bj7sVMY_ax3QuuINweCljDE- has been confirmed
Track | CTDB Status
1 | (11/11) Accurately ripped
2 | (11/11) Accurately ripped
3 | (11/11) Accurately ripped
4 | (11/11) Accurately ripped
5 | (11/11) Accurately ripped
6 | (11/11) Accurately ripped
7 | (10/11) Accurately ripped
8 | (11/11) Accurately ripped
9 | (11/11) Accurately ripped
==== Контрольная сумма отчёта BB2C663EA3F0081E8A665F3FD9011E7A3357594348619341A064176F21948583 ====
Лог проверки качества
-----------------------
DON'T MODIFY THIS FILE
-----------------------
PERFORMER: auCDtect Task Manager, ver. 1.6.0 RC1 build 1.6.0.1
Copyright (c) 2008-2010 y-soft. All rights reserved
http://y-soft.org
ANALYZER: auCDtect: CD records authenticity detector, version 0.8.2
Copyright (c) 2004 Oleg Berngardt. All rights reserved.
Copyright (c) 2004 Alexander Djourik. All rights reserved.
FILE: Harlot - Room With A View (OCD 011).flac
Size: 342868225 Hash: 9FB60DF929D12FB0E6F6E91F0EFEF558 Accuracy: -m0
Conclusion: CDDA 100%
Signature: 1F221D27DA7C9E1BD304582AC029E132D0369568
Лог DRM
foobar2000 1.2.9 / Dynamic Range Meter 1.1.1
log date: 2018-08-17 19:42:52
--------------------------------------------------------------------------------
Analyzed: Harlot / Room With A View (OCD 011)
--------------------------------------------------------------------------------
DR Peak RMS Duration Track
--------------------------------------------------------------------------------
DR10 -0.01 dB -11.14 dB 6:02 01-Now I See
DR11 -0.01 dB -12.73 dB 4:58 02-So Much For Happy Endings
DR11 -0.01 dB -12.17 dB 4:20 03-Out All Night
DR10 -0.01 dB -11.49 dB 5:20 04-Spirits
DR10 -0.01 dB -11.43 dB 4:28 05-Invisible Ones
DR10 -0.01 dB -11.69 dB 4:22 06-Metropolis Children
DR11 -0.01 dB -11.97 dB 4:37 07-Dancing On Dynamite
DR11 -0.16 dB -13.22 dB 4:32 08-Bring Home Your Love
DR10 -0.01 dB -11.00 dB 4:51 09-Kecia
--------------------------------------------------------------------------------
Number of tracks: 9
Official DR value: DR10
Samplerate: 44100 Hz
Channels: 2
Bits per sample: 16
Bitrate: 1051 kbps
Codec: FLAC
================================================================================
Доп. информация: Данное издание - датский первопресс! Огромное спасибо Александру за очередной классный раритет!!!
Состав
ϟ Harlot ϟ
Alex Savage - Lead & Backing Vocals
Mike Koch - All Guitars, Backing Vocals
Bo Brinck - Keyboards, Backing Vocals
Bo Baerentsen - Bass, Backing Vocals
Peter Warming - Drums, Backing Vocals
Backing Vocals On All Tracks - Steve Cherry
Produced by Finn Olafsson
Digitally Recorded at Sweet Silence Studios, Copenhagen
Зарегистрирован:
  • 17-Авг-18 19:46
  • Скачан: 137 раз

Скачать .torrent

15 KB

Тип: обычная
Статус: проверено
Размер: 337.7 MB  ·  magnet6C7621C5442DAB2B4A78E661F943332AB37A917E
  • Свернуть поддиректории
  • Развернуть
  • Переключить
  • Увел./умен. окно
загружается...
 
All rights reserved © 2017-2018
Loading...
Error