(AOR) [CD] John Waite - When You Were Mine - 1997, FLAC (image+.cue), lossless

Статистика раздачи
Размер:  345.1 MB   |   Зарегистрирован:  3 месяца 1 день   |   .torrent скачан:  142 раза
Сиды:  4   Личи:  2
Автор
Сообщение

Samopalkin

Стаж: 9 лет 8 месяцев

Сообщений: 176

flag

Samopalkin · 18-Авг-18 12:44 (3 месяца 1 день назад, ред. 21-Авг-18 17:03)

 

John Waite / When You Were Mine
Жанр: AOR
Носитель: CD
Страна-производитель диска (релиза): USA
Год издания: 1997
Издатель (лейбл): Mercury
Номер по каталогу: 314 536 207-2
Страна исполнителя (группы): UK
Аудиокодек: FLAC (*.flac)
Тип рипа: image+.cue
Битрейт аудио: lossless
Продолжительность: 51:07
Источник (релизер): обмен
Наличие сканов в содержимом раздачи: да
Треклист:
01. When You Were Mine
02. Imaginary Girl
03. Let's Get Out Of Here
04. Suicide Life
05. Just Like A Woman
06. Bluebird Cafe
07. I-95
08. Show Me How To Love You
09. Valentine
10. Have You Seen Her My Friend
11. All I Want For Christmas
Лог создания рипа
Exact Audio Copy V1.0 beta 3 from 29. August 2011
EAC extraction logfile from 18. August 2018, 11:01
John Waite / When You Were Mine
Used drive : ASUS DRW-20B1LT Adapter: 3 ID: 0
Read mode : Secure
Utilize accurate stream : Yes
Defeat audio cache : Yes
Make use of C2 pointers : No
Read offset correction : 6
Overread into Lead-In and Lead-Out : No
Fill up missing offset samples with silence : Yes
Delete leading and trailing silent blocks : No
Null samples used in CRC calculations : Yes
Used interface : Native Win32 interface for Win NT & 2000
Used output format : User Defined Encoder
Selected bitrate : 896 kBit/s
Quality : High
Add ID3 tag : No
Command line compressor : C:\Program Files\Exact Audio Copy\Flac\flac.exe
Additional command line options : -8 -V -T "ARTIST=%artist%" -T "TITLE=%title%" -T "ALBUM=%albumtitle%" -T "DATE=%year%" -T "TRACKNUMBER=%tracknr%" -T "GENRE=%genre%" -T "COMMENT=EAC FLAC -8" %source%
TOC of the extracted CD
Track | Start | Length | Start sector | End sector
---------------------------------------------------------
1 | 0:00.00 | 4:00.10 | 0 | 18009
2 | 4:00.10 | 3:55.62 | 18010 | 35696
3 | 7:55.72 | 4:18.43 | 35697 | 55089
4 | 12:14.40 | 6:56.17 | 55090 | 86306
5 | 19:10.57 | 5:37.28 | 86307 | 111609
6 | 24:48.10 | 3:57.42 | 111610 | 129426
7 | 28:45.52 | 4:11.48 | 129427 | 148299
8 | 32:57.25 | 4:54.40 | 148300 | 170389
9 | 37:51.65 | 3:45.32 | 170390 | 187296
10 | 41:37.22 | 5:39.63 | 187297 | 212784
11 | 47:17.10 | 3:49.45 | 212785 | 230004
Range status and errors
Selected range
Filename K:\EACrips\John Waite - When You Were Mine\John Waite - When You Were Mine.wav
Peak level 99.8 %
Extraction speed 5.6 X
Range quality 100.0 %
Test CRC 32A3A8FD
Copy CRC 32A3A8FD
Copy OK
No errors occurred
AccurateRip summary
Track 1 accurately ripped (confidence 4) [356373C5] (AR v2)
Track 2 accurately ripped (confidence 4) [082B8BAB] (AR v2)
Track 3 accurately ripped (confidence 4) [50457460] (AR v2)
Track 4 accurately ripped (confidence 4) [58AFF65B] (AR v2)
Track 5 accurately ripped (confidence 4) [2673312B] (AR v2)
Track 6 accurately ripped (confidence 4) [210E3110] (AR v2)
Track 7 accurately ripped (confidence 4) [A46EBCED] (AR v2)
Track 8 accurately ripped (confidence 4) [755855A8] (AR v2)
Track 9 accurately ripped (confidence 4) [41A6BEAB] (AR v2)
Track 10 accurately ripped (confidence 4) [A5A217E2] (AR v2)
Track 11 accurately ripped (confidence 4) [F19EE5BC] (AR v2)
All tracks accurately ripped
End of status report
==== Log checksum 462713548093C84BC3EBC151EB7D72DB36516AD79C4C849D9C78974E0594A12E ====
Зарегистрирован:
  • 18-Авг-18 12:44
  • Скачан: 142 раза

Скачать .torrent

14 KB

Тип: обычная
Статус: проверено
Размер: 345.1 MB  ·  magnet6FC580D4DF58A80CF86B3DD753A09E35509F5A6F
  • Свернуть поддиректории
  • Развернуть
  • Переключить
  • Увел./умен. окно
загружается...
 
All rights reserved © 2017-2018
Loading...
Error