Город башмачков / The Shoe People / Серии: 1, 7 из 26 (Кленнел Роусон / Clennel Rawson) [1987, детский, DVDRip] Rus Sub (FilmStore) + Original

Статистика раздачи
Размер:  89.8 MB   |   Зарегистрирован:  2 месяца 27 дней   |   .torrent скачан:  147 раз
Сиды:  2
Автор
Сообщение

lex2085

RG Мультфильмы

Стаж: 10 лет 1 месяц

Сообщений: 3419

flag

lex2085 · 18-Авг-18 21:28 (2 месяца 27 дней назад, ред. 18-Авг-18 21:32)

 

Город башмачков
The Shoe People
Год выпуска: 1987
Страна: Великобритания
Жанр: Мультсериал, детский
Продолжительность: 10:10 (2 серии х 5 мин.)
Перевод: Субтитры
Русские субтитры: есть (FilmStore Group)
Режиссер: Кленнел Роусон /Clennel Rawson/
Описание: В одном городке неподалеку есть старая обувная лавка. В глубине лавки есть пыльная, вся в паутине, комната. Пол в ней завален коробками и ящиками из-под чая. Вдоль стены тянутся полки. На них старый башмачник хранит никому не нужные туфли и ботинки. С годами их накопилась целая гора.
Дверь этой комнаты перекошена. Каждый вечер Старый башмачник хлопает ей изо всех сил, чтобы плотно закрыть. Когда ему это, наконец, удается, он запирает лавку и идет к себе домой. В комнате поднимается густое облако пыли, оседает, и вот тут начинают происходить самые Странные Вещи.
Старый сапог с большущей дыркой на носке начинает шевелится. У него появляется два глаза. Затем нос и рот. Во рту даже зуб есть. Кроме того, у сапога – желтые волосы, и на их надета красная шляпа. Это – Бродяга.
Он оглядывается по сторонам и свистит, засунув пальцы в рот. Так он объявляет всем прочим сапогам, а также туфлям и ботинкам, что пришло время приключений.
Серии в раздаче:
01: Вы умеете хранить тайны? / Can you keep a secret
07: Чарли / Charlie
Релиз: |
Качество: DVDRip
Формат: AVI
Видео: XviD, 720x480, 24fps, 1127 kbps avg
Аудио: 44 kHz, MPEG Layer 3, 2 ch, 96.00 kbps avg (оригинал)
Субтитры: русские | .srt (FilmStore Group)
MediaInfo
General
Complete name : D:\Shoe People - 1x01 - Can You Keep a Secret.avi
Format : AVI
Format/Info : Audio Video Interleave
File size : 44.7 MiB
Duration : 5 min 3 s
Overall bit rate : 1 234 kb/s
Video
ID : 0
Format : xvid
Codec ID : xvid
Duration : 5 min 3 s
Bit rate : 1 129 kb/s
Width : 720 pixels
Height : 480 pixels
Display aspect ratio : 3:2
Frame rate : 24.000 FPS
Bits/(Pixel*Frame) : 0.136
Stream size : 40.8 MiB (91%)
Audio
ID : 1
Format : MPEG Audio
Format version : Version 1
Format profile : Layer 3
Format settings : Joint stereo / MS Stereo
Codec ID : 55
Codec ID/Hint : MP3
Duration : 5 min 3 s
Source duration : 5 min 3 s
Bit rate mode : Constant
Bit rate : 96.0 kb/s
Channel(s) : 2 channels
Sampling rate : 44.1 kHz
Compression mode : Lossy
Stream size : 3.48 MiB (8%)
Alignment : Aligned on interleaves
Interleave, duration : 26 ms (0.63 video frame)

Все раздачи сериала
Зарегистрирован:
  • 18-Авг-18 21:32
  • Скачан: 147 раз

Скачать .torrent

15 KB

Тип: обычная
Статус: проверено
Размер: 89.8 MB  ·  magnetA1080A49EF638769583473A96966DC5710B55A2B
  • Свернуть поддиректории
  • Развернуть
  • Переключить
  • Увел./умен. окно
загружается...

bot · 18-Авг-18 21:34 (спустя 5 мин.)

Тема была перенесена из форума RG Мультфильмы (Оформление раздач) в форум Мультсериалы
lex2085
 
 
All rights reserved © 2017-2018
Loading...
Error