Принц-дракон / The Dragon Prince / Сезон: 1 / Серии: 1-9 из 9 (Джастин Ричмонд) [2018, США, Мультсериал, фантастика, WEB-DL 720p] MVO (AlexFilm) + Original + Sub (eng)

Статистика раздачи
Размер:  3.98 GB   |   Зарегистрирован:  1 месяц 27 дней   |   .torrent скачан:  1,857 раз
Сиды:  39   Личи:  4
Автор
Сообщение

Сибиряк777

Top Seed 05* 640r

Стаж: 10 лет 2 месяца

Сообщений: 2964

flag

Сибиряк777 · 21-Сен-18 23:16 (1 месяц 27 дней назад, ред. 21-Сен-18 23:25)

 

Принц-дракон / The Dragon Prince
Страна: США
Жанр: Мультсериал, фантастика
Продолжительность серии: 00:24:00
Год выпуска: 2018
Перевод: Профессиональный (многоголосый закадровый) - AlexFilm
Русские субтитры: нет
Режиссёр: Джастин Ричмонд
Роли озвучивали: Паула Берроуз, Джек Де Сена, Саша Роджен
Описание: Сюжет истории пойдет о двух принцах, которые объединят свои силы с эльфом, которому было поручено убить их. Вместе они начнут своё удивительное путешествие, чтобы улучшить мир людей. В мультсериале вы увидите много экшена, сражений, невероятные приключения героев мультика, а также драконов.
Семпл: http://multi-up.com/1209546
Качество: WEB-DL 720p
Формат: MKV
Видео: MPEG-4 AVC, 1280x720 (16:9), 23.976 fps, 2150 Kbps, 0.097 bits/pixel
Аудио 1: 48 kHz, AC3, 6 ch, 384 kbps | Rus
Аудио 2: 48 kHz, AC3, 6 ch, 384 kbps | Eng
Субтитры: Английские
Реклама: отсутствует
Релиз
Многоголосое профессиональное закадровое озвучание: AlexFilm
Перевод: Леонид Дмитриев
Роли озвучивали: Екатерина Муравицкая, Алёна Левичева, Леонид Дмитриев, Кирилл Патрино, Константин Федосеев, Михаил Федосеев
Очистка от рекламы: Atla22
Подробные технические данные
General
Complete name : Downloads\Принц-дракон. Мультсериал. AlexFilm (WEB-DL 720p)\The.Dragon.Prince.s01e01. Отголоски грома.mkv
Format : Matroska
Format version : Version 4 / Version 2
File size : 488 MiB
Duration : 23mn 31s
Overall bit rate mode : Variable
Overall bit rate : 2 900 Kbps
Writing application : mkvmerge v25.0.0 ('Prog Noir') 64-bit
Writing library : libebml v1.3.6 + libmatroska v1.4.9
DURATION : 00:23:21.996000000
NUMBER_OF_FRAMES : 258
NUMBER_OF_BYTES : 8836
_STATISTICS_WRITING_APP : mkvmerge v25.0.0 ('Prog Noir') 64-bit
_STATISTICS_WRITING_DATE_UTC : 2018-09-17 23:35:06
_STATISTICS_TAGS : BPS DURATION NUMBER_OF_FRAMES NUMBER_OF_BYTES
Video #1
ID : 1
Format : AVC
Format/Info : Advanced Video Codec
Format profile : Main@L3.1
Format settings, CABAC : Yes
Format settings, ReFrames : 3 frames
Codec ID : V_MPEG4/ISO/AVC
Duration : 23mn 31s
Bit rate mode : Variable
Bit rate : 2 150 Kbps
Maximum bit rate : 3 225 Kbps
Width : 1 280 pixels
Height : 720 pixels
Display aspect ratio : 16:9
Frame rate mode : Constant
Frame rate : 23.976 fps
Color space : YUV
Chroma subsampling : 4:2:0
Bit depth : 8 bits
Scan type : Progressive
Bits/(Pixel*Frame) : 0.097
Stream size : 349 MiB (72%)
Writing library : x264 core 148 r2715 7e75228
Encoding settings : cabac=1 / ref=3 / deblock=1:0:0 / analyse=0x1:0x111 / me=umh / subme=10 / psy=1 / psy_rd=1.00:0.00 / mixed_ref=1 / me_range=24 / chroma_me=1 / trellis=2 / 8x8dct=0 / cqm=0 / deadzone=21,11 / fast_pskip=1 / chroma_qp_offset=-2 / threads=8 / lookahead_threads=1 / sliced_threads=0 / nr=0 / decimate=1 / interlaced=0 / bluray_compat=0 / stitchable=1 / constrained_intra=0 / bframes=2 / b_pyramid=0 / b_adapt=2 / b_bias=0 / direct=3 / weightb=1 / open_gop=0 / weightp=2 / keyint=48 / keyint_min=25 / scenecut=0 / intra_refresh=0 / rc_lookahead=48 / rc=2pass / mbtree=1 / bitrate=2150 / ratetol=1.0 / qcomp=0.50 / qpmin=6 / qpmax=51 / qpstep=4 / cplxblur=20.0 / qblur=0.5 / vbv_maxrate=3225 / vbv_bufsize=4300 / nal_hrd=vbr / filler=0 / ip_ratio=1.40 / aq=1:1.00
Language : English
Default : Yes
Forced : No
Audio #2
ID : 2
Format : AC-3
Format/Info : Audio Coding 3
Mode extension : CM (complete main)
Format settings, Endianness : Big
Codec ID : A_AC3
Duration : 23mn 31s
Bit rate mode : Constant
Bit rate : 384 Kbps
Channel(s) : 6 channels
Channel positions : Front: L C R, Side: L R, LFE
Sampling rate : 48.0 KHz
Bit depth : 16 bits
Compression mode : Lossy
Stream size : 64.6 MiB (13%)
Language : Russian
Default : Yes
Forced : No
Audio #3
ID : 3
Format : AC-3
Format/Info : Audio Coding 3
Mode extension : CM (complete main)
Format settings, Endianness : Big
Codec ID : A_AC3
Duration : 23mn 31s
Bit rate mode : Constant
Bit rate : 384 Kbps
Channel(s) : 6 channels
Channel positions : Front: L C R, Side: L R, LFE
Sampling rate : 48.0 KHz
Bit depth : 16 bits
Compression mode : Lossy
Stream size : 64.6 MiB (13%)
Language : English
Default : No
Forced : No
Text #4
ID : 4
Format : UTF-8
Codec ID : S_TEXT/UTF8
Codec ID/Info : UTF-8 Plain Text
Language : English
Default : No
Forced : No
Скриншоты
Предыдущие и альтернативные раздачи
Зарегистрирован:
  • 21-Сен-18 23:16
  • Скачан: 1,857 раз

Скачать .torrent

22 KB

Тип: обычная
Статус: проверено
Размер: 3.98 GB  ·  magnet1F3878E2AF0AF782136AAF4ED8563456E644EC43
  • Свернуть поддиректории
  • Развернуть
  • Переключить
  • Увел./умен. окно
загружается...

Silochkin

Стаж: 6 лет 8 месяцев

Сообщений: 3

flag

Silochkin · 23-Сен-18 21:50 (спустя 1 день 22 часа)

Даже в титрах лютый закос под "Легенду об Аанге"... Но смотрится хорошо))

Operkosm

Стаж: 7 лет 5 месяцев

Сообщений: 986

flag

Operkosm · 10-Окт-18 00:50 (спустя 16 дней)

Отличный мульт. И если верить кинопоиску, все серии вышли в один день? Ждём продолжение!

RioTech

Стаж: 8 лет 9 месяцев

Сообщений: 88

flag

RioTech · 10-Окт-18 09:35 (спустя 8 часов)

Ждём продолжение! ООООЧЕНЬ

orbb12

Стаж: 9 лет 7 месяцев

Сообщений: 93

flag

orbb12 · 12-Окт-18 21:03 (спустя 2 дня 11 часов)

Я в шоке, что уже есть озвучка. И еще в шоке, что все серии сразу вышли. Думала ждать надо будет долго.
За раздачу спасибо!

Operkosm

Стаж: 7 лет 5 месяцев

Сообщений: 986

flag

Operkosm · 14-Окт-18 23:04 (спустя 2 дня 2 часа)

Кстати, только сейчас обратил внимание озаглавлено:
"Принц-дракон / The Dragon Prince / Сезон: 1 / Серии: 1-9 из 9 (Джастин Ричмонд) [2018, США, Мультсериал, фантастика, WEB-DL 720p] ". Разве это фантастика? Это фэнтези в чистом виде.
 
All rights reserved © 2017-2018
Loading...
Error