Корректный CUE для чтения медиаплеером и HI-RES плеером?

Автор
Сообщение

NickAP60

Стаж: 7 лет 6 месяцев

Сообщений: 20

flag

NickAP60 · 23-Сен-18 12:43 (1 месяц 24 дня назад)

 

Знатоки, подскажите в чем проблема? Куй файл не читается медиаплеером(IconBit) и HI-RES плеером (Xduoo10), но читается программным плеером (AIMP). При этом некоторые CUE файлы скаченные из инета читаются этими девайсами. Мое подозрение пало на не соответствие формата (кодировки) куев. (Пробовал в Блокноте ее менять: unicod, utf8... Но так ничего не добился. Подскажите, как победить проблему?
А началось все с порезанного на треки концертного альбома, соответственно паузы между треками... Треки собрал в один трек в Фубаре2000, но хотел сохранить возможность навигации и обломался(((
Вот один из "кривых" куев:
FILE "Jean-Michel Jarre - Chronology.wav" WAVE
TRACK 01 AUDIO
TITLE "Chronology Part 1"
PERFORMER "Jean-Michel Jarre"
INDEX 01 00:00:00
TRACK 02 AUDIO
TITLE "Chronology Part 2"
PERFORMER "Jean-Michel Jarre"
INDEX 01 11:00:31
TRACK 03 AUDIO
TITLE "Chronology Part 3"
PERFORMER "Jean-Michel Jarre"
INDEX 01 17:05:62
TRACK 04 AUDIO
TITLE "Chronology Part 4"
PERFORMER "Jean-Michel Jarre"
INDEX 01 21:05:29
TRACK 05 AUDIO
TITLE "Chronology Part 5"
PERFORMER "Jean-Michel Jarre"
INDEX 01 25:04:29
TRACK 06 AUDIO
TITLE "Chronology Part 6"
PERFORMER "Jean-Michel Jarre"
INDEX 01 30:39:03
TRACK 07 AUDIO
TITLE "Chronology Part 7"
PERFORMER "Jean-Michel Jarre"
INDEX 01 34:24:39
TRACK 08 AUDIO
TITLE "Chronology Part 8"
PERFORMER "Jean-Michel Jarre"
INDEX 01 36:42:04

Username0_0

Стаж: 4 года 5 месяцев

Сообщений: 131

flag

Username0_0 · 23-Сен-18 21:03 (спустя 8 часов)

Подозреваю, что не совпадает реальное расширение файла и указанное в куе (.wav).

NickAP60

Стаж: 7 лет 6 месяцев

Сообщений: 20

flag

NickAP60 · 23-Сен-18 21:53 (спустя 49 мин.)

Нет, расширение имени файла wav. Я пробовал брать в качестве шаблона "работающий" куй, переделывал его под новый трек, сохранял и все равно бесполезно(

Username0_0

Стаж: 4 года 5 месяцев

Сообщений: 131

flag

Username0_0 · 24-Сен-18 20:48 (спустя 22 часа)

А имя файла и имя куе совпадают? Некоторые плееры критичны к этому.
И у меня альбом называется Chronologie. Может, ошибка в написании...

NickAP60

Стаж: 7 лет 6 месяцев

Сообщений: 20

flag

NickAP60 · 24-Сен-18 21:14 (спустя 25 мин.)

Вот "правильный" куй:
PERFORMER "Jean-Michel Jarre"
TITLE "Chronology"
REM GENRE "Electronic"
REM DATE "2018"
FILE "Jean-Michel Jarre - Chronology.wav" WAVE
TRACK 01 AUDIO
TITLE "Chronology Part 1"
INDEX 01 00:00:00
TRACK 02 AUDIO
TITLE "Chronology Part 2"
INDEX 01 11:00:31
TRACK 03 AUDIO
TITLE "Chronology Part 3"
INDEX 01 17:05:62
TRACK 04 AUDIO
TITLE "Chronology Part 4"
INDEX 01 21:05:29
TRACK 05 AUDIO
TITLE "Chronology Part 5"
INDEX 01 25:04:29
TRACK 06 AUDIO
TITLE "Chronology Part 6"
INDEX 01 30:39:03
TRACK 07 AUDIO
TITLE "Chronology Part 7"
INDEX 01 34:24:39
TRACK 08 AUDIO
TITLE "Chronology Part 8"
INDEX 01 36:42:04
попробуйте найти отличия

Username0_0

Стаж: 4 года 5 месяцев

Сообщений: 131

flag

Username0_0 · 25-Сен-18 20:21 (спустя 23 часа)

NickAP60 писал(а):
76016851Вот "правильный" куй:
PERFORMER "Jean-Michel Jarre"
TITLE "Chronology"
REM GENRE "Electronic"
REM DATE "2018"
попробуйте найти отличия
Я справился?

NickAP60

Стаж: 7 лет 6 месяцев

Сообщений: 20

flag

NickAP60 · 29-Сен-18 20:13 (спустя 3 дня)

скорее всего проблема была в использовании клавиши "Tab"
 
All rights reserved © 2017-2018
Loading...
Error