Несносные пришельцы / Urusei Yatsura / Those Obnoxious Aliens / Серии: 8 из 195 (Осии Мамору / Oshii Mamoru) [1981, комедия, HDRip] AVO (Алексеев) + Original Jpn

Статистика раздачи
Размер:  363.9 MB   |   Зарегистрирован:  1 месяц 13 дней   |   .torrent скачан:  103 раза
Сиды:  1
Автор
Сообщение

lex2085

RG Мультфильмы

Стаж: 10 лет 1 месяц

Сообщений: 3419

flag

lex2085 · 02-Окт-18 12:35 (1 месяц 13 дней назад, ред. 02-Окт-18 14:39)

 

Несносные пришельцы
Urusei Yatsura / Those Obnoxious Aliens

Страна: Япония
Жанр: Аниме, Комедия
Продолжительность: 00:25:38
Год выпуска: 1981
Перевод: Авторский (одноголосый закадровый: Антон Алексеев)
Режиссёр: Осии Мамору / Oshii Mamoru
Описание: Инопланетянка по имени Лам однажды решает захватить Землю. Но по некоторым причинам она поселяется дома у ученика средней школы Моробоси Атару. Лам испытывает нежные чувства к нему, но из-за его свободолюбия постоянно происходят самые невероятные вещи.
"Несносные пришельцы" - это ни что иное, как иронично-цинично-выжатые, вывернутые на изнанку и повешенные сушиться на бельевой веревке, "Марсианские Хроники" Рея Бредбери. В которых уже разные незадачливые "марсиане" постоянно пытаются влезть в жизнь обычного японского подростка.
Бесполезные факты:
  1. Сериал снят по манге Румико Такахаши.
  2. Канал BBC дублировал и показывал первую серию под названием «Лам-захватчица» (Lum: The Invader Girl).

Серии в раздаче:
08: Neptune Beyond the Closet / The Confusing Dinosaur Age
Релиз: |
Юрий Y7 ... перевод Антона Алексеева
Áлексис ... синхронизация
Качество: HDRip
Формат: AVI
Видео: 640x480 (1.33:1), 23.976 fps, XviD build 65 ~1585 kbps avg, 0.22 bit/pixel
Аудио #1: 48 kHz, AC3 Dolby Digital, 2/0 (L,R) ch, ~192.00 kbps avg (Антон Алексеев)
Аудио #2: 48 kHz, AC3 Dolby Digital, 2/0 (L,R) ch, ~192.00 kbps avg (оригинал)
Субтитры: нет
Подробные технические данные
General
Complete name : D:\Urusei Yatsura 008 [Алексеев+Jap].avi
Format : AVI
Format/Info : Audio Video Interleave
File size : 364 MiB
Duration : 25 min 38 s
Overall bit rate : 1 984 kb/s
Writing application : VirtualDubMod 1.5.10.2 (build 2540/release)
Writing library : VirtualDubMod build 2540/release
Video
ID : 0
Format : MPEG-4 Visual
Format profile : Advanced Simple@L5
Format settings : BVOP2 / Custom Matrix
Format settings, BVOP : 2
Format settings, QPel : No
Format settings, GMC : No warppoints
Format settings, Matrix : Custom
Codec ID : XVID
Codec ID/Hint : XviD
Duration : 25 min 38 s
Bit rate : 1 586 kb/s
Width : 640 pixels
Height : 480 pixels
Display aspect ratio : 4:3
Frame rate : 23.976 (24000/1001) FPS
Color space : YUV
Chroma subsampling : 4:2:0
Bit depth : 8 bits
Scan type : Progressive
Compression mode : Lossy
Bits/(Pixel*Frame) : 0.215
Stream size : 291 MiB (80%)
Writing library : XviD 65
Audio #1
ID : 1
Format : AC-3
Format/Info : Audio Coding 3
Codec ID : 2000
Duration : 25 min 38 s
Bit rate mode : Constant
Bit rate : 192 kb/s
Channel(s) : 2 channels
Channel positions : Front: L R
Sampling rate : 48.0 kHz
Frame rate : 31.250 FPS (1536 SPF)
Bit depth : 16 bits
Compression mode : Lossy
Stream size : 35.2 MiB (10%)
Alignment : Split accross interleaves
Interleave, duration : 42 ms (1.00 video frame)
Interleave, preload duratio : 500 ms
Service kind : Complete Main
Audio #2
ID : 2
Format : AC-3
Format/Info : Audio Coding 3
Codec ID : 2000
Duration : 25 min 38 s
Bit rate mode : Constant
Bit rate : 192 kb/s
Channel(s) : 2 channels
Channel positions : Front: L R
Sampling rate : 48.0 kHz
Frame rate : 31.250 FPS (1536 SPF)
Bit depth : 16 bits
Compression mode : Lossy
Stream size : 35.2 MiB (10%)
Alignment : Split accross interleaves
Interleave, duration : 42 ms (1.00 video frame)
Interleave, preload duratio : 500 ms
Service kind : Complete Main
Зарегистрирован:
  • 02-Окт-18 14:39
  • Скачан: 103 раза

Скачать .torrent

14 KB

Тип: обычная
Статус: проверено
Размер: 363.9 MB  ·  magnet5C20EA550760E6792332CADC563BA25A01873D6B
  • Свернуть поддиректории
  • Развернуть
  • Переключить
  • Увел./умен. окно
загружается...

bot · 02-Окт-18 14:43 (спустя 2 часа 7 мин.)

Тема была перенесена из форума RG Мультфильмы (Оформление раздач) в форум Мультсериалы
lex2085
 

SergeZuich

Moderator

Стаж: 7 лет 7 месяцев

Сообщений: 3163

flag

SergeZuich · 03-Окт-18 13:21 (спустя 1 день)

lex2085
ООО! Отличный мульт! Большое Спасибо за релиз!
Срби и Руси браћа заувек!

lex2085

RG Мультфильмы

Стаж: 10 лет 1 месяц

Сообщений: 3419

flag

lex2085 · 03-Окт-18 15:57 (спустя 2 часа 36 мин.)

SergeZuich
Рад стараться!
 
All rights reserved © 2017-2018
Loading...
Error