Этот глупый свин не понимает мечту девочки-зайки / Seishun Buta Yarou wa Bunny Girl Senpai no Yume o Minai [TV] [Без хардсаба] [1-11 из 13] [RUS(int), JAP+SUB] [2018, Комедия, Романтика, Школа, HDTVRip] [720p]

Статистика раздачи
Размер:  2.97 GB   |   Зарегистрирован:  2 дня 2 часа   |   .torrent скачан:  131 раз
Сиды:  15   Личи:  4
Автор
Сообщение

EFill

Стаж: 1 год

Сообщений: 424

flag

EFill · 04-Окт-18 22:58 (2 месяца 12 дней назад, ред. 14-Дек-18 23:11)

 


Страна: Япония
Год выпуска: 2018
Жанр: Комедия, Романтика, Школа
Тип: TV
Продолжительность: 13 эп. ~24 мин
Режиссер: Соити Масуй
Студия:
Озвучка: Трехголосая / AniLibria | SAMPLE
—Derenn(муж)
—Amikiri(жен)
—MyAska(жен)
Перевод: Risens Team, Sovet Romantica

Описание: Однажды, сидя в библиотеке, Азусагава Сакута повстречал странноватую, но очень привлекательную и экстравагантную девушку. Одета она была в откровенный костюм зайчика, который ну никак не вписывался в общий антураж библиотечного спокойствия. Но Сакураджиме Май, так звали незнакомку, было по большому счёту наплевать на правила посещения библиотеки, ведь её проблема куда более важная и насущная, чем ворчание библиотекаря, тем более, что её он не видит.
Впрочем, её никто не видит. Именно поэтому Май и пришла сюда в таком виде. Она самая красивая девушка в школе, а ещё известная актриса, такую видную личность просто невозможно не заметить, но с недавних пор она словно прозрачной для всех стала! Май делится с Сакутой своими догадками, что виной всему "пубертатный синдром”, который сейчас активно обсуждается в интернете. Он, словно эпидемия, обрушился на головы подростков. Сакута решает помочь Май вновь обрести видимость в обществе, ещё не зная, что это положит начало головокружительному роману.
Информационные ссылки:: AniDB | MyAnimeList | World Art
Качество: HDTVRip
Тип релиза: Без хардсаба
Формат видео: MKV
Автор рипа: Ohys-Raws
Видео: AVC, 8 bits, 1280x720, ~1400 kbps, 23,976 fps
Аудио: RUS, AAC, 48000 Hz, 128 kbps, 2 ch; Язык Русский (в составе контейнера) ;
Аудио 2: JAP, AAC, 48000 Hz, 197 kbps, 2 ch;
Субтитры: RUS, ASS (полные, в составе контейнера) Risens Team (Dymdym) (1-5 эп.)
Субтитры: RUS, ASS (полные, в составе контейнера) Sovet Romantica (Airful, ChocoVanilla, KuroKaze) (6+ эп.)

Подробные тех. данные
General
Unique ID : 215806060422228782300766898851055845308 (0xA25ABC42D46AE8079A9C624425C6BFBC)
Complete name : E:\Work\Seishun Buta Yarou wa Bunny Girl Senpai no Yume wo Minai - AniLibria [720p]\Seishun_Buta_Yarou_wa_Bunny_Girl_Senpai_no_Yume_o_Minai_[01]_[AniLibria]_[720p].mkv
Format : Matroska
Format version : Version 4 / Version 2
File size : 302 MiB
Duration : 24 min 59 s
Overall bit rate : 1 689 kb/s
Encoded date : UTC 2018-10-14 17:39:16
Writing application : mkvmerge v22.0.0 ('At The End Of The World') 64-bit
Writing library : libebml v1.3.5 + libmatroska v1.4.8
Video
ID : 1
Format : AVC
Format/Info : Advanced Video Codec
Format profile : Main@L4.1
Format settings : CABAC / 4 Ref Frames
Format settings, CABAC : Yes
Format settings, ReFrames : 4 frames
Codec ID : V_MPEG4/ISO/AVC
Duration : 24 min 59 s
Bit rate : 1 361 kb/s
Width : 1 280 pixels
Height : 720 pixels
Display aspect ratio : 16:9
Frame rate mode : Constant
Frame rate : 23.976 (24000/1001) FPS
Color space : YUV
Chroma subsampling : 4:2:0
Bit depth : 8 bits
Scan type : Progressive
Bits/(Pixel*Frame) : 0.062
Stream size : 243 MiB (81%)
Writing library : x264 core 157 r2935 545de2f
Encoding settings : cabac=1 / ref=3 / deblock=1:0:0 / analyse=0x1:0x111 / me=hex / subme=7 / psy=1 / psy_rd=1.00:0.00 / mixed_ref=1 / me_range=16 / chroma_me=1 / trellis=1 / 8x8dct=0 / cqm=0 / deadzone=21,11 / fast_pskip=1 / chroma_qp_offset=-2 / threads=18 / lookahead_threads=3 / sliced_threads=0 / nr=0 / decimate=1 / interlaced=0 / bluray_compat=0 / constrained_intra=0 / bframes=3 / b_pyramid=2 / b_adapt=1 / b_bias=0 / direct=1 / weightb=1 / open_gop=0 / weightp=2 / keyint=240 / keyint_min=1 / scenecut=40 / intra_refresh=0 / rc_lookahead=40 / rc=crf / mbtree=1 / crf=20.0 / qcomp=0.60 / qpmin=0 / qpmax=69 / qpstep=4 / ip_ratio=1.40 / aq=1:1.50
Default : Yes
Forced : No
Color range : Limited
Color primaries : BT.709
Transfer characteristics : BT.709
Matrix coefficients : BT.709
Audio #1
ID : 2
Format : AAC
Format/Info : Advanced Audio Codec
Format profile : LC
Codec ID : A_AAC-2
Duration : 24 min 59 s
Bit rate : 128 kb/s
Channel(s) : 2 channels
Channel positions : Front: L R
Sampling rate : 48.0 kHz
Frame rate : 46.875 FPS (1024 SPF)
Compression mode : Lossy
Stream size : 22.9 MiB (8%)
Title : AniLibria
Language : Russian
Default : Yes
Forced : Yes
Audio #2
ID : 3
Format : AAC
Format/Info : Advanced Audio Codec
Format profile : LC
Codec ID : A_AAC-2
Duration : 24 min 59 s
Bit rate : 197 kb/s
Channel(s) : 2 channels
Channel positions : Front: L R
Sampling rate : 48.0 kHz
Frame rate : 46.875 FPS (1024 SPF)
Compression mode : Lossy
Stream size : 35.2 MiB (12%)
Title : Original
Language : Japanese
Default : No
Forced : No
Text
ID : 4
Format : ASS
Codec ID : S_TEXT/ASS
Codec ID/Info : Advanced Sub Station Alpha
Duration : 24 min 55 s
Bit rate : 183 b/s
Count of elements : 385
Compression mode : Lossless
Stream size : 33.5 KiB (0%)
Title : Субтитры
Language : Russian
Default : No
Forced : No

Список эпизодов
01. My Senpai Is a Bunny Girl (Моя наставница девочка зайка)
02. On First Dates, Trouble Is Essential (На первое время, проблема сущности)
03. The World Without You (Мир без тебя)
04. There Is No Tomorrow for Rascal (Для негодяя нет завтра)
05. All of the Lies for You (Вся эта ложь ради тебя)
06. This World You Chose (Мир, который ты выбрал)
07. Adolescence Paradox (Парадокс переходного возвраста)
08. Wash It All Away on a Stormy Night (Смыть это всё в бурную ночь)
09. Sister Panic (Паника сестренки)
10. Complex Congratulations (Сложности с поздравлениями)
11. The Kaede Quest (Квест Каэде)

12.
13.

Скриншоты

Добавлена 11-я серия, перекачайте торрент-файл!
Зарегистрирован:
  • 14-Дек-18 23:11
  • Скачан: 131 раз

Скачать .torrent

16 KB

Тип: обычная
Статус: T временная
Размер: 2.97 GB  ·  magnetABFB54F0C149FF8EEEC5D6AB78A60AAFBFE059EC
  • Свернуть поддиректории
  • Развернуть
  • Переключить
  • Увел./умен. окно
загружается...

Murakumo

Стаж: 2 года 8 месяцев

Сообщений: 6

flag

Murakumo · 08-Окт-18 15:49 (спустя 3 дня)

Озвучка Back Board Cinema будет ?
Tвременная
Zabr

Ishtars

Стаж: 9 лет 5 месяцев

Сообщений: 1074

flag

Ishtars · 12-Окт-18 17:59 (спустя 4 дня)

с рус экст будет кто делать или как обычно?
BakaBakaUrusai

EFill

Стаж: 1 год

Сообщений: 424

flag

EFill · 13-Окт-18 08:45 (спустя 14 часов)


Добавлена 2 серия / On First Dates, Trouble Is Essential (На первое время, проблема сущности)

Ishtars

Стаж: 9 лет 5 месяцев

Сообщений: 1074

flag

Ishtars · 13-Окт-18 09:14 (спустя 29 мин., ред. 13-Окт-18 09:14)

EFill
спс. название поправь. там всё ещё 1 из ??
BakaBakaUrusai

EFill

Стаж: 1 год

Сообщений: 424

flag

EFill · 13-Окт-18 19:22 (спустя 10 часов)

Ishtars
поправил. спс

Zаbr

Помощник модератора

Стаж: 4 года 9 месяцев

Сообщений: 3092

flag

Zаbr · 14-Окт-18 20:09 (спустя 1 день)

скрытый текст
Ссылки в тех данных
!не оформлено
Практически полностью отсутствую. Все будет как только, так сразу.


Finally done: Rewrite (Full), Fairy Tail (TV 2), Umaru (TV 2)
Hot ongoings: Gintama (TV 5), Souma (OVA)
Plan to do: Sister Princess (Full), Galaxy Angel (Full), Aria (Full), Bakuman (Full)
мои раздачи

EFill

Стаж: 1 год

Сообщений: 424

flag

EFill · 19-Окт-18 00:11 (спустя 4 дня)


Добавлена 3 серия / The World Without You (Мир без тебя)

EFill

Стаж: 1 год

Сообщений: 424

flag

EFill · 28-Окт-18 01:06 (спустя 9 дней)


Добавлена 4-я серия / There Is No Tomorrow for Rascal (Для негодяя нет завтра)

zloxvostin

Стаж: 8 лет 5 месяцев

Сообщений: 17

flag

zloxvostin · 29-Окт-18 13:55 (спустя 1 день 12 часов)

Спасибо что сабы есть! Всё-таки "Аудио: RUS, AAC," здорово портит лучший тайтл сезона, впрочем как и любое ониме.
Возьмите буквы "Ж", "О", "П", "А" и сложите из них слово "СЧАСТЬЕ".

EFill

Стаж: 1 год

Сообщений: 424

flag

EFill · 02-Ноя-18 20:01 (спустя 4 дня)


Добавлена 5-я серия / All of the Lies for You (Вся эта ложь ради тебя)

EFill

Стаж: 1 год

Сообщений: 424

flag

EFill · 09-Ноя-18 20:18 (спустя 7 дней)


Добавлена 6-я серия / This World You Chose (Мир, который ты выбрал)

Субтитры будут добавлены позже.

darkfol

Стаж: 8 лет 10 месяцев

Сообщений: 4

flag

darkfol · 14-Ноя-18 22:52 (спустя 5 дней)

ну где ж там субтитры то?)

EFill

Стаж: 1 год

Сообщений: 424

flag

EFill · 16-Ноя-18 01:51 (спустя 1 день 2 часа, ред. 16-Ноя-18 01:51)

darkfol писал(а):
76320867ну где ж там субтитры то?)
Пропали, нету ни на 6 ни на 7. Буду брать другие сабы наверное)

Добавлена 7-я серия / Adolescence Paradox (Парадокс переходного возвраста)

P_s_i_x

Стаж: 10 лет 8 месяцев

Сообщений: 5

flag

P_s_i_x · 18-Ноя-18 21:55 (спустя 2 дня 20 часов)

Стараюсь не писать коменты без крайней необходимости, но... Сабы просто жесть. Такие ошибки делают только дебилы и иностранцы. У меня кровь из глаз пошла. Замените все сабы на романтику хотя-бы, у них не так всё плохо.

EFill

Стаж: 1 год

Сообщений: 424

flag

EFill · 23-Ноя-18 23:07 (спустя 5 дней)


Добавлена 8-я серия / Wash It All Away on a Stormy Night (Смыть это всё в бурную ночь)

Necrotrooper

Стаж: 8 лет 2 месяца

Сообщений: 15

Necrotrooper · 29-Ноя-18 13:05 (спустя 5 дней)

А можно сабы отдельно?

EFill

Стаж: 1 год

Сообщений: 424

flag

EFill · 29-Ноя-18 18:03 (спустя 4 часа)

Necrotrooper
Есть соседняя раздача, можете там сабы отдельно взять.

Necrotrooper

Стаж: 8 лет 2 месяца

Сообщений: 15

Necrotrooper · 30-Ноя-18 13:04 (спустя 19 часов)

EFill писал(а):
76407316Necrotrooper
Есть соседняя раздача, можете там сабы отдельно взятСь.
Спасибо, не заметил.

EFill

Стаж: 1 год

Сообщений: 424

flag

EFill · 30-Ноя-18 20:33 (спустя 7 часов)


Добавлена 9-я серия / Sister Panic (Паника сестренки)

Tinkman

Стаж: 4 года 7 месяцев

Сообщений: 7

flag

Tinkman · 07-Дек-18 01:03 (спустя 6 дней)

Скоро 10я серия?

EFill

Стаж: 1 год

Сообщений: 424

flag

EFill · 07-Дек-18 21:07 (спустя 20 часов, ред. 07-Дек-18 21:07)

Tinkman
Уже. Почти.

Добавлена 10-я серия / Complex Congratulations (Сложности с поздравлениями)

EFill

Стаж: 1 год

Сообщений: 424

flag

EFill · 14-Дек-18 23:12 (спустя 7 дней)


Добавлена 11-я серия / The Kaede Quest (Квест Каэде)

 
All rights reserved © 2017-2018
Loading...
Error