Чокнутый / Bonkers / Сезон: 1 / Серии: 1-2, 4, 10, 13, 23 из 65 (Джим Каммингс / Jim Cummings) [1993, комедия, приключения, семейный, VHSRip] DUB (РТР)

Статистика раздачи
Размер:  10.47 GB   |   Зарегистрирован:  1 месяц 7 дней   |   .torrent скачан:  97 раз
Сиды:  3
Автор
Сообщение

ALEKS KV

Top Loader 02* 300GB

Стаж: 10 лет 10 месяцев

Сообщений: 4746

flag

ALEKS KV · 12-Окт-18 21:04 (1 месяц 7 дней назад, ред. 10-Ноя-18 11:17)

 


Чокнутый / Bonkers
Английское название: Bonkers
Русское название: Чокнутый
Год выпуска: 1993
Страна: США
Жанр: комедия, приключения, семейный
Продолжительность: ТВ (65 эп.), ~ 23 минуты
Перевод: Профессиональный (Полное Дублирование) РТР
Субтитры: Нет
Режиссёр: Джим Каммингс / Jim Cummings
Описание:Чокнутый — диснеевский мультсериал про рысь-полицейского. Сериал был создан телестудией Уолта Диснея и был показан в США с 1993 по 1995 год на Диснеевском телеканале (The Disney Channel).
Первоначально был задуман, как анимационная версия фильма «Кто подставил кролика Роджера», но из-за проблем с авторскими правами для сериала были придуманы оригинальные персонажи, но идея мира, где мультяшки и люди живут вместе, и личности двух главных персонажей были сохранены. Однако, в отличие от «кролика Роджера» «Чокнутый» полностью анимирован и не содержит вставок с непосредственной игрой живых актёров.



Релиз от:


Над релизом работали:
tmnt30 ....... Предоставил лицензионные кассеты Видеосервиса
Lexa1988-L1 ....... Предоставил лицензионные кассеты Видеосервиса
Антон Рыжухин ....... Предоставил сканы кассет Видеосервиса
ALEKS KV .......Предоставил лицензионные кассеты Видеосервиса, оцифровка, сканы обложек
Ссылка на остальные раздачи
Доп. Информация:
В релизе представлены оцифровки всех лицензионных кассет выходивших от фирмы "Видеосервис" :
Чокнутый: Полицейская академия (Имеет Hi-Fi звук)
Чокнутый: Полицейское расследование (Имеет Hi-Fi звук)
Чокнутый: Пропавший Микки Маус (Имеет Hi-Fi звук)
На кассете "Полицейское расследование" на отрезке 10:20-10:40 была очень сильно помята лента. Другого варианта пока нет.
Оцифровка производилась с компонентных выходов при помощи тюнера Beholder H8. Главным отличием от всех остальных изданий и телетрансляций является совершенно иной локализованный видео ряд:
Локализация
Обложки Кассет

Сэмпл
Качество: VHSRip
Формат видео: MPEG2
Контейнер: MPG
Аудио кодек: AC3
Видео: MPEG2 Video 720x576 (4:3) 25.000fps 15 000 Kbps
Аудио:
  1. русская: Dolby AC3 48000Hz stereo 384Kbps [РТР] {Hi-Fi}

Наличие серий в раздаче
01. Полицейское расследование - Часть 1
02. Полицейское расследование - Часть 2
04. Подарок на День Рождения
10. Полицейская академия
13. Пропавший Микки Маус
23. Прогноз погоды
Расположение серий в файлах
Чокнутый: Полицейская академия
10. Полицейская академия
04. Подарок на День Рождения

Чокнутый: Полицейское расследование
01. Полицейское расследование - Часть 1
02. Полицейское расследование - Часть 2

Чокнутый: Пропавший Микки Маус
13. Пропавший Микки Маус
23. Прогноз погоды
Подробные технические данные
General
Complete name : xxxxxxxxxxxx\[M-KV2501] Чокнутый [Полицейская академия] [DUB РТР] [VHS Видеосервис] {Hi-Fi}.mpg
Format : MPEG-PS
File size : 3.49 GiB
Duration : 43 min 35 s
Overall bit rate mode : Variable
Overall bit rate : 11.5 Mb/s
Video
ID : 224 (0xE0)
Format : MPEG Video
Format version : Version 2
Format profile : Main@Main
Format settings : CustomMatrix / BVOP
Format settings, BVOP : Yes
Format settings, Matrix : Custom
Format settings, GOP : M=3, N=15
Format settings, picture st : Frame
Duration : 43 min 35 s
Bit rate mode : Variable
Bit rate : 10.8 Mb/s
Maximum bit rate : 15.0 Mb/s
Width : 720 pixels
Height : 576 pixels
Display aspect ratio : 4:3
Frame rate : 25.000 FPS
Standard : PAL
Color space : YUV
Chroma subsampling : 4:2:0
Bit depth : 8 bits
Scan type : Interlaced
Scan order : Top Field First
Compression mode : Lossy
Bits/(Pixel*Frame) : 1.046
Time code of first frame : 00:00:00:01
Time code source : Group of pictures header
GOP, Open/Closed : Open
GOP, Open/Closed of first f : Closed
Stream size : 3.30 GiB (95%)
Audio
ID : 189 (0xBD)-128 (0x80)
Format : AC-3
Format/Info : Audio Coding 3
Muxing mode : DVD-Video
Duration : 43 min 35 s
Bit rate mode : Constant
Bit rate : 384 kb/s
Channel(s) : 2 channels
Channel positions : Front: L R
Sampling rate : 48.0 kHz
Frame rate : 31.250 FPS (1536 SPF)
Bit depth : 16 bits
Compression mode : Lossy
Delay relative to video : 6 ms
Stream size : 120 MiB (3%)
Service kind : Complete Main
Скриншоты
Правила, условия распространения (к прочтению обязательно)
Внимание, данная раздача содержит эксклюзивный контент от M-KV2501 и РГ Мультфильмы. Использовать контент без баннера группы: и указания первоначального источника - ЗАПРЕЩЕНО! Уважайте чужой труд!

Все релизы с мультсериалами Диснея от Видеосервиса:
Зарегистрирован:
  • 12-Окт-18 21:04
  • Скачан: 97 раз

Скачать .torrent

53 KB

Тип: обычная
Статус: проверено
Размер: 10.47 GB  ·  magnetC51AC95003E4D3C9C1A28B6C0A3DDB742F16954B
  • Свернуть поддиректории
  • Развернуть
  • Переключить
  • Увел./умен. окно
загружается...

paladin2017

Стаж: 2 года 5 месяцев

Сообщений: 240

flag

paladin2017 · 27-Окт-18 15:41 (спустя 14 дней)

столько раз смотрел эти мультики и только на днях обратил внимания, что Шалтая и Чёрного плаща озвучивает один человек....

message258

Стаж: 11 лет

Сообщений: 777


message258 · 09-Ноя-18 09:24 (спустя 12 дней)

paladin2017 писал(а):
76209745столько раз смотрел эти мультики и только на днях обратил внимания, что Шалтая и Чёрного плаща озвучивает один человек....
Кстати, точно!
А я недавно обратил внимание, что в одной из серий услышал голос Ливанова. Это серия, когда похитили флаг слоненка Дамбо. Он одну из мышей озвучил. Если я не ослышался, конечно.
 
All rights reserved © 2017-2018
Loading...
Error