Подозрение / Suspicion (Альфред Хичкок / Alfred Hitchcock) [1941, США, триллер, драма, детектив, BDRip 1080p] MVO (SomeWax) + Original Eng + Sub (Rus, Eng, Fra, Ita, Spa, Cze, Pol, Gre)

Статистика раздачи
Размер:  13.65 GB   |   Зарегистрирован:  1 месяц   |   .torrent скачан:  375 раз

Полный источник: был сегодня

  Личи:  2
Автор
Сообщение

DarLeg

Стаж: 10 лет 2 месяца

Сообщений: 1301

flag

DarLeg · 13-Ноя-18 20:45 (1 месяц назад)

 

Подозрение / Suspicion
Год выпуска: 1941
Страна: США
Жанр: триллер, драма, детектив
Продолжительность: 01:39:34
Перевод: Профессиональный (многоголосый закадровый) SomeWax
Оригинальная аудиодорожка: Английская
Субтитры: Русские [форсированные на непереведенный фрагмент, полные (А. К.)], английские, французские, итальянские, испанские, чешские, польские, греческие
Режиссер: Альфред Хичкок / Alfred Hitchcock
В ролях: Кэри Грант, Джоан Фонтейн, Седрик Хардвик, Найджел Брюс, Мэй Уитти, Изабель Джинс, Хэзер Эйнджел, Ориоль Ли, Реджинальд Шеффилд,
Описание:
По роману Фрэнсиса Айлза «Перед фактом» (1932).
Боясь остаться старой девой, Лина второпях выходит замуж за жизнерадостного бездельника Джонни Эйсгарта (первая из 4 ролей Кэри Гранта у сэра Альфреда Хичкока). В мечтах она строит хрустальные замки семейного счастья, но, действительность, увы, скоро становится кошмаром.
Лина начинает подозревать, что Джонни женился на ней из-за денег, что он не просто бездельник - он презирает труд и, возможно, способен предпочесть убийство работе. Его лучший друг, ссудивший ему большую сумму, умирает при таинственных обстоятельствах. Лине кажется, что она следующая, поскольку ее страховой полис может покрыть долги мужа...
Сцена, когда Джонни подает жене стакан молока, так же знаменита, как сцена под душем в "Психозе".
За русскую дорожку спасибо Галлер.
| | Сэмпл
Качество: BDRip 1080p (ViSUM )
Контейнер: MKV
Видео: x264, 1470x1080 (1.36:1), 23.976 fps, 18850 kbps
Аудио 1: Русский AC3 2.0, 48 kHz, 192 kbps
Аудио 2: Английский FLAC 2.0, 48 kHz, 588 kbps, 24-bit
Формат субтитров: softsub (SRT)
Скриншоты
MI
nfo
Suspicion.1941.1080p.BluRay.FLAC2.0.x264-ViSUM
General Information
Source...............: Suspicion 1941 1080p Blu-ray AVC DTS-HD MA 2.0-CiNEMATiC
No. of Episodes......: N/A
Subtitles............: [SRT: English, English SDH] Polish, Czech, Spanish CA, Spanish LA
Chapters.............: Yes
Commentary...........: No
Item Length..........: 01:39:33
Item Size............: 13.90 GB
Total Size...........: N/A
Video Information
Codec................: AVC
Container............: Matroska
Format Profile Level.: High@L4.1
CRF..................: 22.250
Bitrate..............: ~20,100 kb/s
Resolution...........: 1470x1080 pixels
Aspect Ratio.........: 1.361:1
Framerate............: 23.976 fps
Ref. Frames..........: 12
Motion Estimation....: umh / 32
Audio Information
Audio Stream.........: 1
Codec................: FLAC
Channels.............: 2
Language.............: English
Encode Log
frame I:1151 Avg QP:23.22 size:158389
frame P:95817 Avg QP:24.96 size:107832
frame B:46259 Avg QP:25.84 size: 76983
consecutive B-frames: 36.0% 63.0% 0.1% 0.0% 0.3% 0.0% 0.0% 0.0% 0.4%
encoded 143227 frames, 7.365 fps, 18849.91 kb/s, 13424 MB
Encode Notes
- Fixed dirty side borders
- One of the Spanish tracks is accidentally labelled as English. I can issue a repack if required.
Notes
Greetings............: IDE, DON, CtrlHD, EbP, VietHD, SbR
Recruitment..........: Currently recruiting. PM for details.
General
Unique ID : 247679028197844826108979671488075189901 (0xBA553EE636EFE5BD59F7862465BCCE8D)
Complete name : Suspicion.1941.1080p.BluRay.DD.FLAC2.0.x264-ViSUM.mkv
Format : Matroska
Format version : Version 2
File size : 13.7 GiB
Duration : 1 h 39 min
Overall bit rate mode : Variable
Overall bit rate : 19.6 Mb/s
Movie name : Suspicion / Подозрение (1941) – GOSTRACKER
Encoded date : UTC 2018-11-13 16:37:23
Writing application : mkvmerge v28.2.0 ('The Awakening') 64-bit
Writing library : libebml v1.3.6 + libmatroska v1.4.9
Cover : Yes
Attachments : cover.jpg
Video
ID : 1
Format : AVC
Format/Info : Advanced Video Codec
Format profile : High@L4.1
Format settings : CABAC / 5 Ref Frames
Format settings, CABAC : Yes
Format settings, RefFrames : 5 frames
Codec ID : V_MPEG4/ISO/AVC
Duration : 1 h 39 min
Bit rate : 18.8 Mb/s
Width : 1 470 pixels
Height : 1 080 pixels
Display aspect ratio : 4:3
Frame rate mode : Constant
Frame rate : 23.976 (24000/1001) FPS
Color space : YUV
Chroma subsampling : 4:2:0
Bit depth : 8 bits
Scan type : Progressive
Bits/(Pixel*Frame) : 0.495
Stream size : 13.1 GiB (96%)
Title : Suspicion.1941.1080p.BluRay.DD.FLAC2.0.x264-ViSUM
Writing library : x264 core 148 r2665+53 6629127 t_mod_Custom [8-bit@all X86_64]
Encoding settings : cabac=1 / ref=5 / deblock=1:-3:-3 / analyse=0x3:0x113 / me=umh / subme=11 / psy=1 / fade_compensate=0.00 / psy_rd=1.12:0.00 / mixed_ref=1 / me_range=32 / chroma_me=1 / trellis=2 / 8x8dct=1 / cqm=0 / deadzone=21,11 / fast_pskip=0 / chroma_qp_offset=-2 / threads=12 / lookahead_threads=1 / sliced_threads=0 / nr=0 / decimate=0 / interlaced=0 / bluray_compat=0 / constrained_intra=0 / fgo=0 / bframes=8 / b_pyramid=2 / b_adapt=1 / b_bias=0 / direct=3 / weightb=1 / open_gop=0 / weightp=2 / keyint=240 / keyint_min=22 / scenecut=40 / intra_refresh=0 / rc_lookahead=100 / rc=crf / mbtree=0 / crf=22.2500 / qcomp=0.68 / qpmin=0:0:0 / qpmax=69:69:69 / qpstep=4 / vbv_maxrate=62500 / vbv_bufsize=78125 / crf_max=0.0 / nal_hrd=none / filler=0 / ip_ratio=1.20 / pb_ratio=1.10 / aq=3:0.60 / aq-sensitivity=10.00 / aq-factor=1.00:1.00:1.00 / aq2=0 / aq3=0
Language : English
Default : Yes
Forced : No
Audio #1
ID : 2
Format : AC-3
Format/Info : Audio Coding 3
Codec ID : A_AC3
Duration : 1 h 39 min
Bit rate mode : Constant
Bit rate : 192 kb/s
Channel(s) : 2 channels
Channel positions : Front: L R
Sampling rate : 48.0 kHz
Frame rate : 31.250 FPS (1536 SPF)
Bit depth : 16 bits
Compression mode : Lossy
Stream size : 137 MiB (1%)
Title : MVO – SomeWax
Language : Russian
Service kind : Complete Main
Default : Yes
Forced : No
Audio #2
ID : 3
Format : FLAC
Format/Info : Free Lossless Audio Codec
Codec ID : A_FLAC
Duration : 1 h 39 min
Bit rate mode : Variable
Bit rate : 588 kb/s
Channel(s) : 2 channels
Channel positions : Front: L R
Sampling rate : 48.0 kHz
Frame rate : 11.719 FPS (4096 SPF)
Bit depth : 24 bits
Stream size : 419 MiB (3%)
Title : Original
Writing library : libFLAC 1.3.2 (UTC 2017-01-01)
Language : English
Default : No
Forced : No
Text #1
ID : 4
Format : UTF-8
Codec ID : S_TEXT/UTF8
Codec ID/Info : UTF-8 Plain Text
Duration : 9 s 852 ms
Bit rate : 238 b/s
Count of elements : 4
Stream size : 294 Bytes (0%)
Title : forced
Language : Russian
Default : Yes
Forced : Yes
Text #2
ID : 5
Format : UTF-8
Codec ID : S_TEXT/UTF8
Codec ID/Info : UTF-8 Plain Text
Duration : 1 h 38 min
Bit rate : 141 b/s
Count of elements : 1440
Stream size : 101 KiB (0%)
Title : А. К.
Language : Russian
Default : No
Forced : No
Text #3
ID : 6
Format : UTF-8
Codec ID : S_TEXT/UTF8
Codec ID/Info : UTF-8 Plain Text
Duration : 1 h 37 min
Bit rate : 78 b/s
Count of elements : 1376
Stream size : 56.3 KiB (0%)
Language : English
Default : No
Forced : No
Text #4
ID : 7
Format : UTF-8
Codec ID : S_TEXT/UTF8
Codec ID/Info : UTF-8 Plain Text
Duration : 1 h 37 min
Bit rate : 80 b/s
Count of elements : 1429
Stream size : 57.8 KiB (0%)
Title : SDH
Language : English
Default : No
Forced : No
Text #5
ID : 8
Format : UTF-8
Codec ID : S_TEXT/UTF8
Codec ID/Info : UTF-8 Plain Text
Duration : 1 h 39 min
Bit rate : 51 b/s
Count of elements : 1176
Stream size : 37.1 KiB (0%)
Language : French
Default : No
Forced : No
Text #6
ID : 9
Format : UTF-8
Codec ID : S_TEXT/UTF8
Codec ID/Info : UTF-8 Plain Text
Duration : 1 h 38 min
Bit rate : 55 b/s
Count of elements : 1034
Stream size : 40.2 KiB (0%)
Language : Italian
Default : No
Forced : No
Text #7
ID : 10
Format : UTF-8
Codec ID : S_TEXT/UTF8
Codec ID/Info : UTF-8 Plain Text
Duration : 1 h 39 min
Bit rate : 71 b/s
Count of elements : 1405
Stream size : 51.9 KiB (0%)
Language : Spanish
Default : No
Forced : No
Text #8
ID : 11
Format : UTF-8
Codec ID : S_TEXT/UTF8
Codec ID/Info : UTF-8 Plain Text
Duration : 1 h 39 min
Bit rate : 70 b/s
Count of elements : 1407
Stream size : 50.9 KiB (0%)
Language : Czech
Default : No
Forced : No
Text #9
ID : 12
Format : UTF-8
Codec ID : S_TEXT/UTF8
Codec ID/Info : UTF-8 Plain Text
Duration : 1 h 39 min
Bit rate : 65 b/s
Count of elements : 1407
Stream size : 47.4 KiB (0%)
Language : Polish
Default : No
Forced : No
Text #10
ID : 13
Format : UTF-8
Codec ID : S_TEXT/UTF8
Codec ID/Info : UTF-8 Plain Text
Duration : 1 h 37 min
Bit rate : 108 b/s
Count of elements : 1193
Stream size : 77.2 KiB (0%)
Language : Greek
Default : No
Forced : No
Menu
00:00:00.000 : en:01. Credits
00:00:58.934 : en:02. Strangers on a Train
00:03:28.959 : en:03. Up Each Other's Alley
00:06:52.621 : en:04. What's Wrong with Lina
00:10:58.575 : en:05. Her Appointment
00:13:14.585 : en:06. Saved By the Ball
00:17:08.611 : en:07. Love Not As Expected
00:21:17.234 : en:08. See the General Jump
00:24:41.605 : en:09. Newlyweds
00:28:38.717 : en:10. Let's Be Practical
00:32:34.119 : en:11. Wedding Present
00:36:02.786 : en:12. Beaky; Missing Chairs
00:40:34.515 : en:13. Red Letter Day
00:44:54.692 : en:14. Not Good for Beaky
00:46:56.313 : en:15. Missing Money
00:50:01.749 : en:16. Tearing Her Apart
00:52:07.750 : en:17. You Win, Old Boy
00:53:43.262 : en:18. Not Lina's Business
00:59:45.791 : en:19. Murder Spelled Out
01:02:27.369 : en:20. Trip to Tangmere
01:05:03.358 : en:21. Lifesaver
01:08:39.324 : en:22. Englishman Found Dead
01:13:35.202 : en:23. Johnnie's Whereabouts
01:17:28.269 : en:24. Just As in Books
01:21:54.409 : en:25. Event of Her Death
01:25:10.689 : en:26. Look of a Murderer?
01:28:19.377 : en:27. The Way She Feels
01:30:31.051 : en:28. Glass of Milk
01:34:26.244 : en:29. Cliffside Drive
01:36:57.353 : en:30. Turnaround
01:39:01.269 : en:31. Cast List
Зарегистрирован:
  • 13-Ноя-18 20:45
  • Скачан: 375 раз

Скачать .torrent

68 KB

Тип: обычная
Статус: * не проверено
Размер: 13.65 GB  ·  magnet5AF30F912D94D947365EAE71DAA66DA29E7245EA
  • Свернуть поддиректории
  • Развернуть
  • Переключить
  • Увел./умен. окно
загружается...

DonSerjio

Top Bonus 04* 3TB

Стаж: 9 лет 11 месяцев

Сообщений: 4224

flag

DonSerjio · 24-Ноя-18 19:12 (спустя 10 дней)

Спасибо за великого Альфреда Хичкока в 1080р!
Снято и сыграно отлично.
Иногда стремительный шаг вперед - последствие пинка под зад.
Одни с годами умнеют, другие - становятся старше.
 
All rights reserved © 2017-2018
Loading...
Error