Гото, остров любви / Goto, Island of Love / Goto, l'île d'amour (Валериан Боровчик / Walerian Borowczyk) [1969, Франция, драма, BDRemux 1080p] MVO (5 канал) + AVO (К. Дьяконов) + Sub Eng + Original Fra

Статистика раздачи
Размер:  23.45 GB   |   Зарегистрирован:  1 месяц   |   .torrent скачан:  394 раза
Сиды:  2
Автор
Сообщение

porvaliparus

Стаж: 1 год 7 месяцев

Сообщений: 1510

flag

porvaliparus · 14-Ноя-18 01:08 (1 месяц назад, ред. 14-Ноя-18 01:42)

 

Гото, остров любви / Goto, Island of Love / Goto, l'île d'amour
Страна: Франция
Студия: Les Productions Rene Thevenet, Euro-Images
Жанр: драма
Год выпуска: 1969
Продолжительность: 01:33:26
Перевод 1: Профессиональный (многоголосый закадровый) Петербург 5 канал
Перевод 2: Авторский (одноголосый закадровый) К. Дьяконов
Субтитры: английские
Оригинальная аудиодорожка: французский
Режиссер: Валериан Боровчик / Walerian Borowczyk
В ролях: Пьер Брассёр, Лигия Бранице, Жан-Пьер Андреани, Жинетт Леклерк, Fernand Bercher, Мишель Шаррель, Пьер Колле, Raoul Darblay, Руди Ленуар, Колетт Режис, Мишель Томасс, Эри Аркадий и др.
Описание: По мотивам романа Стефана Жеромского "История греха".
События разворачиваются на странном острове, управляемом династией Гото. Единственные его обитатели — военные, заключённые, воспитанники школы для мальчиков и проститутки…


Сэмпл IMDB Кинопоиск


Доп. информация:
За перевод Петербург 5 канал спасибо Нгаут
Перевод К. Дьяконова взят здесь
Перевод К. Дьяконова наложен на итальянский дубляж.
Тип релиза: BDRemux 1080p (Goto.Island.of.Love.1969.1080p.BluRay.REMUX.AVC.FLAC.1.0-EPSiLON)
Контейнер: MKV
Видео: AVC / 1920x1080 / 16:9 / 23.976 fps / 35000 Kbps / High@L4.1
Аудио 1 Rus: AC3 / 48.0 KHz / 2.0 / 192 kbps / MVO / 5 канал
Аудио 2 Rus: AC3 / 48.0 KHz / 1.0 / 96 kbps / AVO / К. Дьяконов
Аудио 3 Fra: FLAC / 48.0 KHz / 1.0 / 638 kbps / 24 bit
Формат субтитров: softsub (SRT)
MediaInfo
Общее
Уникальный идентификатор : 316170980394777886691061614195243879427 (0xEDDC50DCC80BAD12B55663A1C64E0C03)
Полное имя : E:\porvaliparus.2018\Goto.Island.of.Love.1969.BDRemux.1080p.mkv
Формат : Matroska
Версия формата : Version 4 / Version 2
Размер файла : 23,4 Гбайт
Продолжительность : 1 ч. 33 м.
Режим общего битрейта : Переменный
Общий поток : 35,9 Мбит/сек
Название фильма : Goto.Island.of.Love.1969.BDRemux.1080p-porvaliparus
Дата кодирования : UTC 2018-11-13 11:46:31
Программа кодирования : mkvmerge v28.2.0 ('The Awakening') 64-bit
Библиотека кодирования : libebml v1.3.6 + libmatroska v1.4.9
Видео
Идентификатор : 1
Формат : AVC
Формат/Информация : Advanced Video Codec
Профиль формата : High@L4.1
Настройки формата : CABAC / 3 Ref Frames
Параметр CABAC формата : Да
Параметр RefFrames формата : 3 кадра
Идентификатор кодека : V_MPEG4/ISO/AVC
Продолжительность : 1 ч. 33 м.
Вид битрейта : Переменный
Битрейт : 35,0 Мбит/сек
Максимальный битрейт : 40,0 Мбит/сек
Ширина : 1920 пикселей
Высота : 1080 пикселей
Соотношение сторон : 16:9
Режим частоты кадров : Постоянный
Частота кадров : 23,976 (24000/1001) кадра/сек
Цветовое пространство : YUV
Субдискретизация насыщенности : 4:2:0
Битовая глубина : 8 бит
Тип развёртки : Прогрессивная
Бит/(Пиксели*Кадры) : 0.704
Размер потока : 22,8 Гбайт (97%)
Заголовок : Goto.Island.of.Love.1969.BDRemux.1080p
Библиотека кодирования : x264 core 128 r2216 198a7ea
Настройки программы : cabac=1 / ref=4 / deblock=0:-1:-1 / analyse=0x3:0x133 / me=umh / subme=10 / psy=1 / psy_rd=1.00:0.15 / mixed_ref=1 / me_range=24 / chroma_me=1 / trellis=2 / 8x8dct=1 / cqm=0 / deadzone=21,11 / fast_pskip=1 / chroma_qp_offset=-3 / threads=12 / lookahead_threads=2 / sliced_threads=0 / slices=4 / nr=0 / decimate=1 / interlaced=0 / bluray_compat=1 / constrained_intra=0 / bframes=3 / b_pyramid=1 / b_adapt=2 / b_bias=0 / direct=3 / weightb=1 / open_gop=1 / weightp=1 / keyint=24 / keyint_min=1 / scenecut=40 / intra_refresh=0 / rc_lookahead=24 / rc=2pass / mbtree=0 / bitrate=35000 / ratetol=0.0 / qcomp=0.00 / qpmin=0 / qpmax=69 / qpstep=4 / cplxblur=20.0 / qblur=0.5 / vbv_maxrate=40000 / vbv_bufsize=30000 / nal_hrd=vbr / ip_ratio=1.40 / pb_ratio=1.30 / aq=1:1.00
Default : Да
Forced : Нет
Цветовой диапазон : Limited
Основные цвета : BT.709
Характеристики трансфера : BT.709
Коэффициенты матрицы : BT.709
Аудио #1
Идентификатор : 2
Формат : AC-3
Формат/Информация : Audio Coding 3
Идентификатор кодека : A_AC3
Продолжительность : 1 ч. 33 м.
Вид битрейта : Постоянный
Битрейт : 192 Кбит/сек
Каналы : 2 канала
Расположение каналов : Front: L R
Частота : 48,0 КГц
Частота кадров : 31,250 кадров/сек (1536 SPF)
Битовая глубина : 16 бит
Метод сжатия : С потерями
Размер потока : 128 Мбайт (1%)
Заголовок : MVO [5 канал]
Язык : Russian
ServiceKind/String : Complete Main
Default : Да
Forced : Нет
Аудио #2
Идентификатор : 3
Формат : AC-3
Формат/Информация : Audio Coding 3
Идентификатор кодека : A_AC3
Продолжительность : 1 ч. 33 м.
Вид битрейта : Постоянный
Битрейт : 96,0 Кбит/сек
Каналы : 1 канал
Расположение каналов : Front: C
Частота : 48,0 КГц
Частота кадров : 31,250 кадров/сек (1536 SPF)
Битовая глубина : 16 бит
Метод сжатия : С потерями
Размер потока : 64,2 Мбайт (0%)
Заголовок : AVO [К. Дьяконов]
Язык : Russian
ServiceKind/String : Complete Main
Default : Нет
Forced : Нет
Аудио #3
Идентификатор : 4
Формат : FLAC
Формат/Информация : Free Lossless Audio Codec
Идентификатор кодека : A_FLAC
Продолжительность : 1 ч. 33 м.
Вид битрейта : Переменный
Битрейт : 638 Кбит/сек
Каналы : 1 канал
Расположение каналов : Front: C
Частота : 48,0 КГц
Частота кадров : 11,719 кадров/сек (4096 SPF)
Битовая глубина : 24 бит
Размер потока : 426 Мбайт (2%)
Библиотека кодирования : libFLAC 1.2.1 (UTC 2007-09-17)
Язык : French
Default : Нет
Forced : Нет
Текст
Идентификатор : 5
Формат : UTF-8
Идентификатор кодека : S_TEXT/UTF8
Идентификатор кодека/Информация : UTF-8 Plain Text
Продолжительность : 1 ч. 26 м.
Битрейт : 27 бит/сек
ElementCount : 576
Размер потока : 17,3 Кбайт (0%)
Язык : English
Default : Нет
Forced : Нет
Меню
00:00:00.000 : en:Chapter 1
00:01:25.127 : en:Chapter 2
00:03:49.521 : en:Chapter 3
00:10:02.936 : en:Chapter 4
00:19:13.486 : en:Chapter 5
00:28:55.359 : en:Chapter 6
00:37:19.779 : en:Chapter 7
00:42:01.352 : en:Chapter 8
00:50:26.231 : en:Chapter 9
00:59:34.779 : en:Chapter 10
01:10:24.887 : en:Chapter 11
01:18:19.737 : en:Chapter 12
01:27:41.423 : en:Chapter 13
Скриншоты
Зарегистрирован:
  • 14-Ноя-18 01:08
  • Скачан: 394 раза

Скачать .torrent

59 KB

Тип: обычная
Статус: * не проверено
Размер: 23.45 GB  ·  magnet125B9E6005595D33AB51AADEEDEA3225ABBCFD59
  • Свернуть поддиректории
  • Развернуть
  • Переключить
  • Увел./умен. окно
загружается...
 
All rights reserved © 2017-2018
Loading...
Error