Попсовый эпос / Pop Team Epic / Poputepipikku / PPTPPK [TV] [12 из 12] [Без хардсаба] [RUS(int), JAP+SUB] [2018, комедия, приключения, WEBRip] [1080p]

Статистика раздачи
Размер:  11.31 GB   |   Зарегистрирован:  27 дней   |   .torrent скачан:  78 раз
Сиды:  7   Личи:  1
Автор
Сообщение

AniPlague

Стаж: 1 год 1 месяц

Сообщений: 91

flag

AniPlague · 17-Ноя-18 13:36 (27 дней назад, ред. 12-Дек-18 19:37)

 

Попсовый эпос
Страна:
Год выпуска: 2018
Жанр: комедия, приключения
Тип: TV
Продолжительность: 12 эп. по ~24 мин.
Режиссер: Аоки Дзюн
Студия:

Многоголосая озвучка от:

Chirick и Leonhart (муж.)
Murrzik и VereneyR (жен.)

Описание: Аниме по мотивам одноимённой комедийной манги-ёнкомы. По своей сути сериал является сборником зачастую малопонятных западному обывателю гэгов японского интернет-коммьюнити. Все комичные сцены объединяет лишь наличие неразлучных Попуко и Пипими, кочующих из эпизода в эпизод персонажей, по совместительству являющихся лицом произведения и примеряющих в них различные сатирические образы.
Попуко и Пипими — это две школьницы, разговаривающие мужскими голосами, которые вытворяют абсурдные вещи. Одна — низкорослая блондинка со вспыльчивым характером, другая — высокая брюнетка, относящаяся ко всему со значительной долей спокойствия. Однако вместе они представляют собой взрывоопасный коктейль из юмора, ломающего не только четвёртую стену, но и психику. Упаси Господь встретить таких в реальной жизни!
©mejek ©man from Chiba
Информационные ссылки: AniDB || World Art || MAL
Качество: WEBRip
Тип релиза: без хардсаба
Формат видео: MKV
Релиз/Автор рипа: Erai Raws
Совместимость с бытовыми плеерами: Нет
Видео: x264, 8 bit, 1920x1080, ~4600 kb/s, 23.976 fps
Аудио:
1: AAC, 192 kbps, 48.0 KHz, stereo
2: AAC, 128 kbps, 44.1 KHz, stereo
Субтитры:
1: ASS,(надписи);
2: ASS, (полные) (1-6)[AniPlay: Garret]; (7-12)[Crunchyroll];
3: ASS, (полные);
ВСЁ В ОДНОМ MKV КОНТЕЙНЕРЕ
Подробные тех. данные
Общее
Уникальный идентификатор : 284685123730339678293485902228164889369 (0xD62C5C468ABCD9A087EC06933D8ACB19)
Полное имя : E:\Раздача\Попсовый эпос\[AniPlague] Попсовый эпос - серия 01 - Вторжение.mkv
Формат : Matroska
Версия формата : Version 4 / Version 2
Размер файла : 850 Мбайт
Продолжительность : 23 м. 43 с.
Общий поток : 5007 Кбит/сек
Название фильма : [AniPlague] Попсовый эпос - серия 01 - Вторжение
Дата кодирования : UTC 2018-11-17 01:06:32
Программа кодирования : mkvmerge v25.0.0 ('Prog Noir') 64-bit
Библиотека кодирования : libebml v1.3.6 + libmatroska v1.4.9
Attachments : 9420.ttf / arial.ttf / arialbd.ttf / foo_regular.ttf / V_Misfit_v1.0.ttf
Видео
Идентификатор : 1
Формат : AVC
Формат/Информация : Advanced Video Codec
Профиль формата : High@L4
Настройки формата : CABAC / 4 Ref Frames
Параметр CABAC формата : Да
Параметр RefFrames формата : 4 кадра
Идентификатор кодека : V_MPEG4/ISO/AVC
Продолжительность : 23 м. 39 с.
Битрейт : 4686 Кбит/сек
Ширина : 1920 пикселей
Высота : 1080 пикселей
Соотношение сторон : 16:9
Режим частоты кадров : Постоянный
Частота кадров : 23,976 (24000/1001) кадра/сек
Цветовое пространство : YUV
Субдискретизация насыщенности : 4:2:0
Битовая глубина : 8 бит
Тип развёртки : Прогрессивная
Бит/(Пиксели*Кадры) : 0.094
Размер потока : 793 Мбайт (93%)
Заголовок : Вторжение
Библиотека кодирования : x264 core 142
Настройки программы : cabac=1 / ref=4 / deblock=1:1:1 / analyse=0x3:0x113 / me=umh / subme=8 / psy=1 / psy_rd=0.40:0.00 / mixed_ref=1 / me_range=16 / chroma_me=1 / trellis=1 / 8x8dct=1 / cqm=0 / deadzone=21,11 / fast_pskip=1 / chroma_qp_offset=-2 / threads=12 / lookahead_threads=2 / sliced_threads=0 / nr=0 / decimate=1 / interlaced=0 / bluray_compat=0 / constrained_intra=0 / bframes=3 / b_pyramid=2 / b_adapt=2 / b_bias=0 / direct=3 / weightb=1 / open_gop=0 / weightp=2 / keyint=48 / keyint_min=24 / scenecut=40 / intra_refresh=0 / rc_lookahead=48 / rc=crf / mbtree=1 / crf=15.0 / qcomp=0.60 / qpmin=0 / qpmax=69 / qpstep=4 / vbv_maxrate=8000 / vbv_bufsize=12000 / crf_max=0.0 / nal_hrd=none / filler=0 / ip_ratio=1.40 / aq=1:0.60
Язык : Japanese
Default : Да
Forced : Да
Аудио #1
Идентификатор : 2
Формат : AAC
Формат/Информация : Advanced Audio Codec
Профиль формата : LC
Идентификатор кодека : A_AAC-2
Продолжительность : 23 м. 40 с.
Битрейт : 192 Кбит/сек
Каналы : 2 канала
Расположение каналов : Front: L R
Частота : 48,0 КГц
Частота кадров : 46,875 кадров/сек (1024 SPF)
Метод сжатия : С потерями
Размер потока : 32,1 Мбайт (4%)
Заголовок : AniPlague
Язык : Russian
Default : Да
Forced : Да
Аудио #2
Идентификатор : 3
Формат : AAC
Формат/Информация : Advanced Audio Codec
Профиль формата : LC
Идентификатор кодека : A_AAC-2
Продолжительность : 23 м. 40 с.
Битрейт : 128 Кбит/сек
Каналы : 2 канала
Расположение каналов : Front: L R
Частота : 44,1 КГц
Частота кадров : 43,066 кадра/сек (1024 SPF)
Метод сжатия : С потерями
Размер потока : 21,7 Мбайт (3%)
Заголовок : Original
Язык : Japanese
Default : Нет
Forced : Нет
Текст #1
Идентификатор : 4
Формат : ASS
Идентификатор кодека : S_TEXT/ASS
Идентификатор кодека/Информация : Advanced Sub Station Alpha
Продолжительность : 23 м. 7 с.
Битрейт : 77 бит/сек
ElementCount : 132
Метод сжатия : Без потерь
Размер потока : 13,1 Кбайт (0%)
Заголовок : Forced
Язык : Russian
Default : Да
Forced : Да
Текст #2
Идентификатор : 5
Формат : ASS
Идентификатор кодека : S_TEXT/ASS
Идентификатор кодека/Информация : Advanced Sub Station Alpha
Продолжительность : 23 м. 43 с.
Битрейт : 88 бит/сек
ElementCount : 246
Метод сжатия : Без потерь
Размер потока : 15,4 Кбайт (0%)
Заголовок : AniPlay
Язык : Russian
Default : Нет
Forced : Нет
Текст #3
Идентификатор : 6
Формат : ASS
Идентификатор кодека : S_TEXT/ASS
Идентификатор кодека/Информация : Advanced Sub Station Alpha
Продолжительность : 23 м. 41 с.
Битрейт : 73 бит/сек
ElementCount : 240
Метод сжатия : Без потерь
Размер потока : 12,7 Кбайт (0%)
Заголовок : ENG
Язык : English
Default : Нет
Forced : Нет
Список эпизодов
01 - Вторжение
02 - Игра в другом измерении
03 - Документальный фильм
04 - SWGP 2018
05 - Не называй меня сестрой!
06 - Тридцатая кибервойна
07 - Хэллшейк Яно
08 - Дракон Идабаси. Месть Пипи
09 - Танцы с чудесами
10 - Детективы-хостесс из Гиндзы
11 - Проклятый особняк
12 - Такэсёбо
Отличия
http://GOSTRACKER.XYZ/viewtopic.php?t=5560836 - Альтернативная озвучка
http://GOSTRACKER.XYZ/viewtopic.php?t=5560829 - Наличие озвучки
http://GOSTRACKER.XYZ/viewtopic.php?t=5546647 - Полный комплект серий, наличие озвучки
Скриншоты
Зарегистрирован:
  • 17-Ноя-18 13:36
  • Скачан: 78 раз

Скачать .torrent

30 KB

Тип: обычная
Статус: ? недооформлено
Размер: 11.31 GB  ·  magnet376871FCCE712C3AE3B9EB6ADC7CEAD18547FF64
  • Свернуть поддиректории
  • Развернуть
  • Переключить
  • Увел./умен. окно
загружается...

Zаbr

Помощник модератора

Стаж: 4 года 9 месяцев

Сообщений: 3090

flag

Zаbr · 10-Дек-18 22:25 (спустя 23 дня)

скрытый текст
AniPlague писал(а):
76335324[RUS(int), JAP+SUB(RUS, ENG)]
для тега саб не пишется язык, уберите
AniPlague писал(а):
76335324эпик,
нет такого жанра
AniPlague писал(а):
76335324Видео: x264, 8 bit, 1920x1080, ~5 000 kb/s, 23.976 fps
нужно указать битрейт видео, а не общий
AniPlague писал(а):
76335324(1-6)pic; (7-12)pic;
пишите важную информацию текстом
да и далеко не все знают чьи это иконки
AniPlague писал(а):
76335324Перевод: Garret
не понятно, к какой группе указанной выше, относится переводчик
Семпл нужно переделать (более 50% времени!!!), у вас там буквально 3 фразы
?недооформлено
Практически полностью отсутствую. Все будет как только, так сразу.


Finally done: Rewrite (Full), Fairy Tail (TV 2), Umaru (TV 2)
Hot ongoings: Gintama (TV 5), Souma (OVA)
Plan to do: Sister Princess (Full), Galaxy Angel (Full), Aria (Full), Bakuman (Full)
мои раздачи

AniPlague

Стаж: 1 год 1 месяц

Сообщений: 91

flag

AniPlague · 12-Дек-18 16:44 (спустя 1 день 18 часов)

Zаbr писал(а):
Семпл нужно переделать (более 50% времени!!!), у вас там буквально 3 фразы
Все замечания учел, только так и не понял, что не так с сэмплом?
Идет больше минуты, фраз порядка 15-ти наберется и раскиданы по всему таймлайну.
Мне переделать не сложно, но тут жанр такой, что сплошь разговорную часть еще поискать нужно.
К предыдущим семплам ни разу придирок не было.

Zаbr

Помощник модератора

Стаж: 4 года 9 месяцев

Сообщений: 3090

flag

Zаbr · 12-Дек-18 21:38 (спустя 4 часа)

AniPlague, не было потому что там много говорили. Для семла 2 основных требования: чтобы был длиной не меньше минуты и чтобы говорили более 50% его длительности. У вас же щас 2 пункт щас не выполняется.
Рекомендую смотреть по сабам, где много говорят, очень удобно
Практически полностью отсутствую. Все будет как только, так сразу.


Finally done: Rewrite (Full), Fairy Tail (TV 2), Umaru (TV 2)
Hot ongoings: Gintama (TV 5), Souma (OVA)
Plan to do: Sister Princess (Full), Galaxy Angel (Full), Aria (Full), Bakuman (Full)
мои раздачи
 
All rights reserved © 2017-2018
Loading...
Error